Обыкновенное чудо (Марк Захаров) [1978, мюзикл, комедия, мелодрама, DVDRip, 480p] Original

 
 Статистика раздачи 
Размер: 1.89 ГБ   |  Зарегистрирован: 13 авг 2015, 08:14   |   .torrent скачан: 2 раз
Сидеров: 1  [ 0 байт/сек ]     Личеров: 0  [ 0 байт/сек ]  
  

Обыкновенное чудо (Марк Захаров) [1978, мюзикл, комедия, мелодрама, DVDRip, 480p] Original

Сообщение bagouser » 13 авг 2015, 08:14

Обыкновенное чудо



Год выпуска: 1978
Страна: СССР
Жанр: мюзикл, комедия, мелодрама
Продолжительность: 01:08:45 + 01:08:53 = 02:17:38 (2 серии)
Режиссёр: Марк Захаров
Сценарий: Марк Захаров, Евгений Шварц
В ролях: Олег Янковский, Ирина Купченко, Евгений Леонов, Евгения Симонова, Александр Абдулов, Екатерина Васильева, Андрей Миронов, Леонид Серебренников, Юрий Соломин, Андрей Леонов, Михаил Боярский

Описание:
Пришло время - волшебник женился, остепенился, занялся хозяйством. Но однажды, встретив в лесу медведя, все-таки не вытерпел: взял и превратил его в прекрасного юношу, поставив условие, что тот снова станет медведем, если его поцелует принцесса...

Исходник: DVD9
Контейнер: m4v
Видео: H.264, 640x480 (4:3), 1800 kbps, 25 fps
Аудио: AAC, 2 ch, 160 kbps, 48 kHz
Главы: прописаны
Name: Обыкновенное чудо
Artist: Марк Захаров
Release Date: 1979-01-01T08:00:00Z
Description: Пришло время - волшебник женился, остепенился, занялся хозяйством. Но однажды, встретив в лесу медведя, все-таки не вытерпел: взял и превратил его в прекрасного юношу, поставив условие, что тот снова станет медведем, если его поцелует принцесса...
Long Description: Пришло время - волшебник женился, остепенился, занялся хозяйством. Но однажды, встретив в лесу медведя, все-таки не вытерпел: взял и превратил его в прекрасного юношу, поставив условие, что тот снова станет медведем, если его поцелует принцесса...
Cast: Олег Янковский, Ирина Купченко, Евгений Леонов, Евгения Симонова, Александр Абдулов, Екатерина Васильева, Андрей Миронов, Леонид Серебренников, Юрий Соломин, Андрей Леонов, Михаил Боярский
Director: Марк Захаров
Screenwriters: Марк Захаров, Евгений Шварц
contentID: 77282
XID: Apple:vendor_id:1978-77282
1 серия:
x264 [info]: frame I:1306 Avg QP:21.12 size: 27682 PSNR Mean Y:43.99 U:50.24 V:50.38 Avg:45.09 Global:44.29
x264 [info]: frame P:101843 Avg QP:23.30 size: 8758 PSNR Mean Y:40.22 U:46.96 V:47.42 Avg:41.45 Global:41.07
x264 [info]: mb I I16..4: 33.0% 0.0% 67.0%
x264 [info]: mb P I16..4: 0.7% 0.0% 2.4% P16..4: 48.9% 21.7% 9.0% 0.0% 0.0% skip:17.4%
x264 [info]: coded y,uvDC,uvAC intra: 82.4% 79.7% 37.3% inter: 36.6% 43.9% 2.0%
x264 [info]: i16 v,h,dc,p: 39% 15% 7% 39%
x264 [info]: i4 v,h,dc,ddl,ddr,vr,hd,vl,hu: 7% 6% 3% 13% 18% 17% 15% 12% 10%
x264 [info]: i8c dc,h,v,p: 46% 15% 25% 14%
x264 [info]: ref P L0: 84.9% 9.6% 5.5%
x264 [info]: SSIM Mean Y:0.9635949 (14.388db)
x264 [info]: PSNR Mean Y:40.267 U:46.998 V:47.453 Avg:41.497 Global:41.095 kb/s:1799.55

2 серия:
x264 [info]: frame I:801 Avg QP:18.73 size: 36399 PSNR Mean Y:45.68 U:51.67 V:52.01 Avg:46.76 Global:46.09
x264 [info]: frame P:102540 Avg QP:21.40 size: 8785 PSNR Mean Y:42.21 U:48.60 V:49.34 Avg:43.37 Global:42.95
x264 [info]: mb I I16..4: 18.3% 0.0% 81.7%
x264 [info]: mb P I16..4: 0.4% 0.0% 1.6% P16..4: 50.0% 22.8% 9.2% 0.0% 0.0% skip:16.0%
x264 [info]: coded y,uvDC,uvAC intra: 86.9% 80.1% 40.6% inter: 37.7% 48.6% 2.2%
x264 [info]: i16 v,h,dc,p: 36% 13% 7% 45%
x264 [info]: i4 v,h,dc,ddl,ddr,vr,hd,vl,hu: 9% 6% 2% 13% 17% 17% 14% 12% 10%
x264 [info]: i8c dc,h,v,p: 47% 14% 26% 13%
x264 [info]: ref P L0: 84.7% 9.8% 5.5%
x264 [info]: SSIM Mean Y:0.9739976 (15.850db)
x264 [info]: PSNR Mean Y:42.241 U:48.625 V:49.356 Avg:43.395 Global:42.968 kb/s:1799.81
1 серия:
General
Format : MPEG-4
Format profile : Base Media / Version 2
Codec ID : mp42
File size : 968 MiB
Duration : 1h 8mn
Overall bit rate mode : Variable
Overall bit rate : 1 968 Kbps
Movie name : Обыкновенное чудо: 1 серия
Performer : Марк Захаров
Genre : комедия, драма, фэнтези, мелодрама
ContentType : Short Film
Description : Пришло время — волшебник женился, остепенился, занялся хозяйством. Но однажды, встретив в лесу медведя, всё-таки не вытерпел: взял и превратил его в прекрасного юношу, поставив условие, что тот снова станет медведем, если его поцелует принцесса…
Recorded date : 1978-01-01
Encoded date : UTC 2014-06-04 17:06:29
Tagged date : UTC 2014-06-10 09:34:09
Cover : Yes
Rating : None
LongDescription : Пришло время — волшебник женился, остепенился, занялся хозяйством. Но однажды, встретив в лесу медведя, всё-таки не вытерпел: взял и превратил его в прекрасного юношу, поставив условие, что тот снова станет медведем, если его поцелует принцесса…
AppleStoreCatalogID : 77282
Vendor : Apple:vendor_id:1978-77282
iTunMOVI : <?xml version="1.0" encoding="UTF-8"?> / <!DOCTYPE plist PUBLIC "-/Apple/DTD PLIST 1.0/EN" "http://www.apple.com/DTDs/PropertyList-1.0.dtd"> / <plist version="1.0"> / <dict> / <key>cast</key> / <array> / <dict> / <key>name</key> / <string>Олег Янковский</string> / </dict> / <dict> / <key>name</key> / <string>Ирина Купченко</string> / </dict> / <dict> / <key>name</key> / <string>Евгений Леонов</string> / </dict> / <dict> / <key>name</key> / <string>Евгения Симонова</string> / </dict> / <dict> / <key>name</key> / <string>Александр Абдулов</string> / </dict> / <dict> / <key>name</key> / <string>Екатерина Васильева</string> / </dict> / <dict> / <key>name</key> / <string>Андрей Миронов</string> / </dict> / <dict> / <key>name</key> / <string>Леонид Серебренников</string> / </dict> / <dict> / <key>name</key> / <string>Юрий Соломин</string> / </dict> / <dict> / <key>name</key> / <string>Андрей Леонов</string> / </dict> / <dict> / <key>name</key> / <string>Михаил Боярский</string> / </dict> / </array> / <key>directors</key> / <array> / <dict> / <key>name</key> / <string>Марк Захаров</string> / </dict> / </array> / <key>screenwriters</key> / <array> / <dict> / <key>name</key> / <string>Марк Захаров</string> / </dict> / <dict> / <key>name</key> / <string>Евгений Шварц</string> / </dict> / </array> / <key>studio</key> / <string>Мосфильм</string> / </dict> / </plist>

Video #1
ID : 1
Format : AVC
Format/Info : Advanced Video Codec
Format profile : Baseline@L3.0
Format settings, CABAC : No
Format settings, ReFrames : 3 frames
Codec ID : avc1
Codec ID/Info : Advanced Video Coding
Duration : 1h 8mn
Bit rate : 1 800 Kbps
Width : 640 pixels
Height : 480 pixels
Display aspect ratio : 4:3
Frame rate mode : Constant
Frame rate : 25.000 fps
Color space : YUV
Chroma subsampling : 4:2:0
Bit depth : 8 bits
Scan type : Progressive
Bits/(Pixel*Frame) : 0.234
Stream size : 885 MiB (91%)
Writing library : x264 core 130 r2273 b3065e6
Encoding settings : cabac=0 / ref=3 / deblock=1:-1:-1 / analyse=0x1:0x111 / me=umh / subme=9 / psy=1 / psy_rd=1.00:0.00 / mixed_ref=1 / me_range=32 / chroma_me=1 / trellis=1 / 8x8dct=0 / cqm=0 / deadzone=21,11 / fast_pskip=1 / chroma_qp_offset=-2 / threads=6 / lookahead_threads=1 / sliced_threads=0 / nr=0 / decimate=1 / interlaced=0 / bluray_compat=0 / constrained_intra=0 / bframes=0 / weightp=0 / keyint=250 / keyint_min=25 / scenecut=40 / intra_refresh=0 / rc_lookahead=40 / rc=2pass / mbtree=1 / bitrate=1800 / ratetol=1.0 / qcomp=0.60 / qpmin=4 / qpmax=69 / qpstep=4 / cplxblur=20.0 / qblur=0.5 / vbv_maxrate=5000 / vbv_bufsize=5000 / nal_hrd=none / ip_ratio=1.40 / aq=1:1.00
Language : Russian
Encoded date : UTC 2014-06-04 17:06:29
Tagged date : UTC 2014-06-04 17:44:03
Color primaries : BT.601 PAL
Transfer characteristics : BT.709
Matrix coefficients : BT.601

Video #2
ID : 4
Format : JPEG
Codec ID : jpeg
Duration : 1h 8mn
Bit rate mode : Variable
Bit rate : 1 691 bps
Width : 640 pixels
Height : 480 pixels
Display aspect ratio : 4:3
Frame rate mode : Variable
Frame rate : 0.003 fps
Minimum frame rate : 0.001 fps
Maximum frame rate : 0.009 fps
Color space : YUV
Chroma subsampling : 4:2:0
Bit depth : 8 bits
Compression mode : Lossy
Bits/(Pixel*Frame) : 1.835
Stream size : 826 KiB (0%)
Language : Russian
Encoded date : UTC 2014-06-10 09:34:00
Tagged date : UTC 2014-06-10 09:34:00

Audio
ID : 2
Format : AAC
Format/Info : Advanced Audio Codec
Format profile : LC
Codec ID : 40
Duration : 1h 8mn
Bit rate mode : Variable
Bit rate : 160 Kbps
Maximum bit rate : 224 Kbps
Channel(s) : 2 channels
Channel positions : Front: L R
Sampling rate : 48.0 KHz
Compression mode : Lossy
Stream size : 78.7 MiB (8%)
Language : Russian
Encoded date : UTC 2014-06-04 17:06:29
Tagged date : UTC 2014-06-04 17:44:01

Menu
ID : 3
Codec ID : text
Duration : 1h 8mn
Language : Russian
Encoded date : UTC 2014-06-04 17:06:29
Tagged date : UTC 2014-06-04 17:44:03
Bit rate mode : VBR
 
Не забывайте говорить Спасибо. Не уходите с раздачи!   
Торрент: Зарегистрирован [13 авг 2015, 08:14] Для скачивания .torrent
необходима регистрация
Или скачать с помощью
MediaGet
Статус:
Проверен
 
.torrent скачан: 2 раз
Хэш: f7f302d24edf2b2b4170a2c65639fbca042b8a28
Размер: 1.89 ГБ (2 032 340 666 байт)
Стать Автором раздачи
 
Аватара пользователя
 
Раздал: 3.77 ТБ
Скачал: 406.3 ГБ
Ратио: 9.496
Сообщения: 468702
Зарегистрирован: 20 янв 2011, 21:15


  • Похожие торренты
    Ответы
    Просмотры
    Последнее сообщение

Вернуться в Фильмы для iPod, iPhone, iPad

Кто сейчас на конференции

Сейчас эту тему просматривают: нет зарегистрированных пользователей и гости: 1

Ресурс не предоставляет электронные версии произведений, а занимается лишь коллекционированием и каталогизацией ссылок, присылаемых и публикуемых на форуме нашими читателями. Если вы являетесь правообладателем какого-либо представленного материала и не желаете чтобы ссылка на него находилась в нашем каталоге, свяжитесь с нами и мы незамедлительно удалим её. Файлы для обмена на трекере предоставлены пользователями сайта, и администрация не несёт ответственности за их содержание. Просьба не заливать файлы, защищенные авторскими правами, а также файлы нелегального содержания!