Мама / Mama (Андрес Мускетти / Andrés Muschietti) [2013, Ужасы, фэнтези, триллер, BDRip] Dub

 
 Статистика раздачи 
Размер: 745.88 МБ   |  Зарегистрирован: 20 авг 2015, 05:57   |   .torrent скачан: 31 раз
Сидеров: 10  [ 0 байт/сек ]     Личеров: 0  [ 0 байт/сек ]  
  

Мама / Mama (Андрес Мускетти / Andrés Muschietti) [2013, Ужасы, фэнтези, триллер, BDRip] Dub

Сообщение bagouser » 20 авг 2015, 05:57

Мама / Mama
«Никогда не оставит тебя»

Год выхода: 2013
Выпущено: Испания, Канада / Toma 78, De Milo
Жанр: ужасы, фэнтези, триллер
Продолжительность: 01:40:06
Перевод: Профессиональный (полное дублирование)
Субтитры: нет
Режиссер:
Андрес Мускетти / Andrés Muschietti
В ролях:
Джессика Честейн, Николай Костер-Вальдау, Меган Чарпентье, Изабель Нелисс, Дэниэл Кэш, Хавьер Боте, Джейн Моффат, Морган МакГарри, Дэвид Фокс, Доминик Куццокреа
Описание:
В заброшенной хижине в чаще леса найдены две девочки. Таинственным образом они прожили в пустом доме пять лет. Найденных сирот забирают единственные родственники, молодая супружеская пара. Но девочки не одиноки, у них есть мама, и она приходит из тьмы…
Релиз группы | IMDB | КиноПоиск | Сэмпл |
Качество: BDRip [Mama.2013.1080p.BluRay.AVC.DTS-HD.MA.5.1-PublicHD]
Формат: AVI

Видео: 656x352 (1.86:1), 23.976 fps, XviD build 65 ~904 kbps avg, 0.16 bit/pixel
Аудио: 48 kHz, MPEG Layer 3, 2 ch, ~128.00 kbps avg


Код:
Код: Выделить всё
Общее
Полное имя                       : H:\Фильмы\Мои релизы\Mama_2013_BDRip_745_by_Dalemake.avi
Формат                           : AVI
Формат/Информация                : Audio Video Interleave
Размер файла                     : 746 Мбайт
Продолжительность                : 1 ч. 40 м.
Общий поток                      : 1042 Кбит/сек
Программа кодирования            : VirtualDubMod 1.5.10.3 | www.virtualdub-fr.org || (build 2550/release)
Библиотека кодирования           : VirtualDubMod build 2550/release

Видео
Идентификатор                    : 0
Формат                           : MPEG-4 Visual
Профиль формата                  : Advanced Simple@L5
Параметр BVOP формата            : 1
Параметр QPel формата            : Нет
Параметр GMC формата             : Без точки перехода
Параметр матрицы формата         : Выборочная
Идентификатор кодека             : XVID
Идентификатор кодека/Подсказка   : XviD
Продолжительность                : 1 ч. 40 м.
Битрейт                          : 904 Кбит/сек
Ширина                           : 656 пикселей
Высота                           : 352 пикселя
Соотношение сторон               : 1,864
Частота кадров                   : 23,976 кадра/сек
Цветовое пространство            : YUV
Субдискретизация насыщенности    : 4:2:0
Битовая глубина                  : 8 бит
Тип развёртки                    : Прогрессивная
Метод сжатия                     : С потерями
Бит/(Пиксели*Кадры)              : 0.163
Размер потока                    : 648 Мбайт (87%)
Библиотека кодирования           : XviD 65

Аудио
Идентификатор                    : 1
Формат                           : MPEG Audio
Версия формата                   : Version 1
Профиль формата                  : Layer 3
Идентификатор кодека             : 55
Идентификатор кодека/Подсказка   : MP3
Продолжительность                : 1 ч. 40 м.
Вид битрейта                     : Постоянный
Битрейт                          : 128 Кбит/сек
Каналы                           : 2 канала
Частота                          : 48,0 КГц
Метод сжатия                     : С потерями
Размер потока                    : 91,6 Мбайт (12%)
Выравнивание                     : Соединение по промежуткам
Продолжительность промежутка     : 42  мс. (1,00 видеокадр)
Время предзагрузки промежутка    : 504  мс.
Библиотека кодирования           : LAME3.99r
Настройки программы              : -m s -V 4 -q 2 -lowpass 17 -b 128


 
Не забывайте говорить Спасибо. Не уходите с раздачи!   
Торрент: Зарегистрирован [20 авг 2015, 05:57] Для скачивания .torrent
необходима регистрация
Или скачать с помощью
MediaGet
Статус:
Проверен
 
.torrent скачан: 31 раз
Хэш: 3aa0cf1f042b8e69b9212f45b97a4417b2cbd136
Размер: 745.88 МБ (782 108 672 байт)
Стать Автором раздачи
 
Аватара пользователя
 
Раздал: 3.77 ТБ
Скачал: 406.3 ГБ
Ратио: 9.496
Сообщения: 468702
Зарегистрирован: 20 янв 2011, 21:15


  • Похожие торренты
    Ответы
    Просмотры
    Последнее сообщение

Вернуться в Зарубежные фильмы 2011 - 2015 года

Кто сейчас на конференции

Сейчас эту тему просматривают: нет зарегистрированных пользователей и гости: 1

Ресурс не предоставляет электронные версии произведений, а занимается лишь коллекционированием и каталогизацией ссылок, присылаемых и публикуемых на форуме нашими читателями. Если вы являетесь правообладателем какого-либо представленного материала и не желаете чтобы ссылка на него находилась в нашем каталоге, свяжитесь с нами и мы незамедлительно удалим её. Файлы для обмена на трекере предоставлены пользователями сайта, и администрация не несёт ответственности за их содержание. Просьба не заливать файлы, защищенные авторскими правами, а также файлы нелегального содержания!