Побег из Тибета / Escape from Tibet / Wie zwischen Himmel und Erde (Мария Блюменкрон / Maria Blumencron) [2012, Германия,Швейцария, драма, DVDRip] Sub Rus + Original Ger

 
 Статистика раздачи 
Размер: 997.93 МБ   |  Зарегистрирован: 23 авг 2015, 02:53   |   .torrent скачан: 0 раз
Сидеров: 1  [ 0 байт/сек ]     Личеров: 0  [ 0 байт/сек ]  
  

Побег из Тибета / Escape from Tibet / Wie zwischen Himmel und Erde (Мария Блюменкрон / Maria Blumencron) [2012, Германия,Швейцария, драма, DVDRip] Sub Rus + Original Ger

Сообщение bagouser » 23 авг 2015, 02:53

Побег из Тибета / Escape from Tibet/Wie zwischen Himmel und Erde

Страна: Германия,Швейцария
Жанр: драма
Год выпуска: 2012
Продолжительность: 1:36:27

Перевод: Отсутствует
Cубтитры: русские
Оригинальная аудиодорожка: немецкий

Режиссер: Мария Блюменкрон/ Maria Blumencron

В ролях: Ханна Херцшпрунг
Сангай Егер
Дэвид Ли МакИннис
Янгзом Брауен
Цедар Хозам
Сонам Нарбу Гафель
Тензин Докар Лама
Карлос Леаль

Описание: Тибет,2009 год. Немецкая альпинистка Йоханна становится невольной участницей тайной операции по вывозу из китайского Тибета наследника Далай Ламы. Ей противостоит майор китайской спецслужбы Ван Бао...

Сэмпл: http://multi-up.com/827923

Качество видео: DVDRip
Формат видео: AVI

Видео: 640x272 (2.35:1) 25 fps XviD build 64 988 kbps avg 0.23 bit/pixel
Аудио: 48 kHz AC3 Dolby Digital 3/2 (L,C,R,l,r) + LFE ch 448 kbps 1:36:23.808 / 308.89 Mb
Формат субтитров: softsub (SRT)
209
00:17:08,150 --> 00:17:10,539
Он чуть не замерз сегодня ночью.

210
00:17:10,750 --> 00:17:11,944
Ему нельзя здесь оставаться.

211
00:17:12,150 --> 00:17:13,105
Но он же еще маленький.

212
00:17:13,310 --> 00:17:14,823
Ему нельзя здесь оставаться..

213
00:17:15,030 --> 00:17:16,179
Я думала,буддисты милосердны.

214
00:17:16,390 --> 00:17:17,903
Или так говорит только Далай Лама?

215
00:17:18,110 --> 00:17:19,941
Не упоминайте здесь Далай Ламу.

216
00:17:20,150 --> 00:17:21,299
Это опасно.

217
00:17:21,510 --> 00:17:23,023
Возьмите мальчика с собой в Лхасу.

218
00:17:23,230 --> 00:17:24,549
Спрячьте его в багаже.

219
00:17:24,750 --> 00:17:25,546
Спрятать?

220
00:17:25,750 --> 00:17:27,866
Он был свидетелем преступления.

221
00:17:28,070 --> 00:17:29,662
И поэтому он в опасности.

222
00:17:30,110 --> 00:17:31,509
Помогите ему.

223
00:17:33,230 --> 00:17:36,302
В отеле Патала в Лхасе вы найдете

224
00:17:36,510 --> 00:17:38,626
женщину по имени Мето.

225
00:17:39,470 --> 00:17:41,381
Передайте мальчика ей.

226
00:17:42,310 --> 00:17:43,823
Но только Мето...

227
00:17:44,350 --> 00:17:46,659
Это всё,что надо сделать.

228
00:18:05,190 --> 00:18:07,181
Флоранс хотела посмотреть
еще другие монастыри.

229
00:18:07,390 --> 00:18:09,460
Хочешь поехать с нами?

230
00:18:10,350 --> 00:18:12,864
Через три дня у меня самолет из Лхасы.

231
00:18:15,590 --> 00:18:16,784
Так что никак?

232
00:18:17,950 --> 00:18:19,906
У меня и так слишком много
впечатлений от Тибета.

233
00:18:22,510 --> 00:18:24,546
Я тебя понимаю.

234
00:18:25,990 --> 00:18:28,709
Особенно если кто-то ждет дома...

235
00:18:39,830 --> 00:18:42,390
Это - для крысы в облике мальчика.
Общее
Полное имя : C:\Users\kon\Downloads\co-wzhue-xvid\co-wzhue-xvid.avi
Формат : AVI
Формат/Информация : Audio Video Interleave
Размер файла : 998 Мбайт
Продолжительность : 1 ч. 36 м.
Общий поток : 1446 Кбит/сек
Программа кодирования : VirtualDubMod 1.5.10.2 (build 2540/release)
Библиотека кодирования : VirtualDubMod build 2540/release

Видео
Идентификатор : 0
Формат : MPEG-4 Visual
Профиль формата : Advanced Simple@L5
Параметр BVOP формата : 2
Параметр QPel формата : Нет
Параметр GMC формата : Без точки перехода
Параметр матрицы формата : Default (H.263)
Идентификатор кодека : XVID
Идентификатор кодека/Подсказка : XviD
Продолжительность : 1 ч. 36 м.
Битрейт : 989 Кбит/сек
Ширина : 640 пикселей
Высота : 272 пикселя
Соотношение сторон : 2,35:1
Частота кадров : 25,000 кадров/сек
Цветовое пространство : YUV
Субдискретизация насыщенности : 4:2:0
Битовая глубина : 8 бит
Тип развёртки : Прогрессивная
Метод сжатия : С потерями
Бит/(Пиксели*Кадры) : 0.227
Размер потока : 682 Мбайт (68%)
Библиотека кодирования : XviD 64

Аудио
Идентификатор : 1
Формат : AC-3
Формат/Информация : Audio Coding 3
Расширение режима : CM (complete main)
Параметр Endianness формата : Big
Идентификатор кодека : 2000
Продолжительность : 1 ч. 36 м.
Вид битрейта : Постоянный
Битрейт : 448 Кбит/сек
Каналы : 6 каналов
Расположение каналов : Front: L C R, Side: L R, LFE
Частота : 48,0 КГц
Битовая глубина : 16 бит
Метод сжатия : С потерями
Размер потока : 309 Мбайт (31%)
Выравнивание : Разделение по промежуткам
Продолжительность промежутка : 40 мс. (1,00 видеокадр)
Время предзагрузки промежутка : 500 мс.
[/url]



][/img]
 
Не забывайте говорить Спасибо. Не уходите с раздачи!   
Торрент: Зарегистрирован [23 авг 2015, 02:53] Для скачивания .torrent
необходима регистрация
Или скачать с помощью
MediaGet
Статус:
Проверен
 
.torrent скачан: 0 раз
Хэш: 7863c4492b0ce4af630f141e4eb2b884050ba42c
Размер: 997.93 МБ (1 046 409 816 байт)
Стать Автором раздачи
 
Аватара пользователя
 
Раздал: 3.77 ТБ
Скачал: 406.3 ГБ
Ратио: 9.496
Сообщения: 468702
Зарегистрирован: 20 янв 2011, 21:15


  • Похожие торренты
    Ответы
    Просмотры
    Последнее сообщение

Вернуться в Зарубежные фильмы 2011 - 2015 года

Кто сейчас на конференции

Сейчас эту тему просматривают: нет зарегистрированных пользователей и гости: 1

Ресурс не предоставляет электронные версии произведений, а занимается лишь коллекционированием и каталогизацией ссылок, присылаемых и публикуемых на форуме нашими читателями. Если вы являетесь правообладателем какого-либо представленного материала и не желаете чтобы ссылка на него находилась в нашем каталоге, свяжитесь с нами и мы незамедлительно удалим её. Файлы для обмена на трекере предоставлены пользователями сайта, и администрация не несёт ответственности за их содержание. Просьба не заливать файлы, защищенные авторскими правами, а также файлы нелегального содержания!