Рождество Христово. Трансляция из Храма Христа Спасителя / Первый канал [06.01.2016, Богослужение, IPTVRip/AVI/XviD]

 
 Статистика раздачи 
Размер: 1.88 ГБ   |  Зарегистрирован: 07 янв 2016, 15:35   |   .torrent скачан: 0 раз
Сидеров: 7  [ 0 байт/сек ]     Личеров: 1  [ 0 байт/сек ]  
  

Рождество Христово. Трансляция из Храма Христа Спасителя / Первый канал [06.01.2016, Богослужение, IPTVRip/AVI/XviD]

Сообщение Master Chief » 07 янв 2016, 15:35

Рождество Христово
Трансляция из Храма Христа Спасителя


Дата/Год выпуска: 06.01.2016
Страна: Россия
Жанр: Богослужение
Продолжительность: 02:18:51
Перевод: Не требуется
Русские субтитры: нет
Телеканал:
Описание: "Первый канал" представляет трансляцию рождественского богослужения из Храма Христа Спасителя в Москве. Рождество – один из главных христианских праздников, установленный в честь рождения Иисуса Христа от Девы Марии. Русская православная церковь и другие церкви, использующие юлианский календарь, празднуют Рождество 7 января.
Автор рипа/записи: GMM
Сэмпл: http://multi-up.com/1082964

Качество: IPTVRip
Формат: AVI
Видео: 720x400 (16:9), 25 fps, XviD, ~1800 Kbps
Аудио: MPEG Layer 3, 48 kHz, 2 channels, 128 Kbps
Код: Выделить всё
Формат                                   : AVI
Формат/Информация                        : Audio Video Interleave
Размер файла                             : 1,88 Гбайт
Продолжительность                        : 2 ч. 18 м.
Общий поток                              : 1935 Кбит/сек
Программа кодирования                    : TMPGEnc Video Mastering Works 5 Version. 5.0.6.38
Библиотека кодирования                   : TMPGEnc Video Mastering Works 5 Version. 5.0.6.38
Правообладатель                          : gmm120880

Видео
Идентификатор                            : 0
Формат                                   : MPEG-4 Visual
Профиль формата                          : Advanced Simple@L5
Параметр BVOP формата                    : 1
Параметр QPel формата                    : Нет
Параметр GMC формата                     : Без точки перехода
Параметр матрицы формата                 : Default (H.263)
Идентификатор кодека                     : XVID
Идентификатор кодека/Подсказка           : XviD
Продолжительность                        : 2 ч. 18 м.
Битрейт                                  : 1800 Кбит/сек
Ширина                                   : 720 пикселей
Высота                                   : 400 пикселей
Соотношение сторон                       : 16:9
Частота кадров                           : 25,000 кадров/сек
Цветовое пространство                    : YUV
Субдискретизация насыщенности            : 4:2:0
Битовая глубина                          : 8 бит
Тип развёртки                            : Прогрессивная
Метод сжатия                             : С потерями
Бит/(Пиксели*Кадры)                      : 0.250
Размер потока                            : 1,75 Гбайт (93%)
Библиотека кодирования                   : XviD 67

Аудио
Идентификатор                            : 1
Формат                                   : MPEG Audio
Версия формата                           : Version 1
Профиль формата                          : Layer 3
Режим                                    : Joint stereo
Расширение режима                        : MS Stereo
Идентификатор кодека                     : 55
Идентификатор кодека/Подсказка           : MP3
Продолжительность                        : 2 ч. 18 м.
Вид битрейта                             : Постоянный
Битрейт                                  : 128 Кбит/сек
Каналы                                   : 2 канала
Частота                                  : 48,0 КГц
Метод сжатия                             : С потерями
Размер потока                            : 127 Мбайт (7%)
Выравнивание                             : Соединение по промежуткам
Продолжительность промежутка             : 250  мс. (6,25 видеокадров)
Время предзагрузки промежутка            : 192  мс.
 
Не забывайте говорить Спасибо. Не уходите с раздачи!   
Торрент: Зарегистрирован [07 янв 2016, 15:35] Для скачивания .torrent
необходима регистрация
Или скачать с помощью
MediaGet
Статус:
Проверен
 
.torrent скачан: 0 раз
Хэш: 2e68ef6928c1089e85c1f97643d7afd98c88638b
Размер: 1.88 ГБ (2 015 466 832 байт)
Стать Автором раздачи
 
Аватара пользователя
Администратор
Администратор
 
Раздал: 56.73 ТБ
Скачал: 79.93 ТБ
Ратио: 0.710
Сообщения: 76582
Зарегистрирован: 07 янв 2011, 16:36


  • Похожие торренты
    Ответы
    Просмотры
    Последнее сообщение

Вернуться в Вера и религия (видео)

Кто сейчас на конференции

Сейчас эту тему просматривают: нет зарегистрированных пользователей и гости: 1

Ресурс не предоставляет электронные версии произведений, а занимается лишь коллекционированием и каталогизацией ссылок, присылаемых и публикуемых на форуме нашими читателями. Если вы являетесь правообладателем какого-либо представленного материала и не желаете чтобы ссылка на него находилась в нашем каталоге, свяжитесь с нами и мы незамедлительно удалим её. Файлы для обмена на трекере предоставлены пользователями сайта, и администрация не несёт ответственности за их содержание. Просьба не заливать файлы, защищенные авторскими правами, а также файлы нелегального содержания!