Полёт ведьмы / Flying Witch [TV] [01 из 12] [Без хардсаба] [RUS(ext), JAP, SUB] [2016 г., Повседневность, Комедия, Сёнен, Сверхъестественное, HDTVRip] [720p]

Только для раздач с озвучкой имеющей нарекания или неизвестной в рамках sun-torrents.name
 
 Статистика раздачи 
Размер: 392.39 МБ   |  Зарегистрирован: 18 апр 2016, 07:18   |   .torrent скачан: 0 раз
Сидеров: 16  [ 0 байт/сек ]     Личеров: 5  [ 0 байт/сек ]  
  

Полёт ведьмы / Flying Witch [TV] [01 из 12] [Без хардсаба] [RUS(ext), JAP, SUB] [2016 г., Повседневность, Комедия, Сёнен, Сверхъестественное, HDTVRip] [720p]

Сообщение Master Chief » 18 апр 2016, 07:18


Полёт ведьмы / Flying Witch / ふらいんぐうぃっち

Год выпуска: 2016 г.
Страна: Япония
Жанр: Повседневность, Комедия, Сёнен, Сверхъестественное
Тип: TV
Продолжительность: 12 эп. по 00:22:49
Режиссер: Сакураби Кацуси
Студия: J.C. Staff
Перевод:
[*]Русские субтитры от alkoponet & red_star & Rhododendron[*]Русские субтитры от CanFly[*]Русские субтитры от Anilibria
Озвучка:[*]Трехголосая от Nazel & Freya & Komuro (Animedia) -sample[*]Трехголосая от E-Rotic & Акварелька & Баяна (AniFilm) -sample[*]Двухголосая от (муж/жен) Fuurou & Трина Дубовицкая (AniDub) -sample[*]Двухголосая от (муж/жен) Mikrobelka & Whi7eCroW (Anilibria) -sample
Описание:
Аомори, Япония. В месте, славящемся своей прекрасной природой, начинают происходить поистине странные вещи. Пятнадцатилетняя Макото Ковата – профессиональная ведьма. Вместе со своим чёрным котом, Чито, она уехала из Йокогамы к родственникам в Аомори, где должны начаться её ведьминские учения. И пускай её способности пока ограничиваются одним лишь полётом, она, вместе со своими двоюродными братьями, Кеем и Чинатсу, проживают каждый свой день на полную.
Информационные ссылки: World Art || AniDB || MAL
Качество: HDTVRip | Рип: [Leopard-Raws]
Тип релиза: Без хардсаба
Формат видео: MP4
Наличие линковки: Нет
Видео: AVC, 1280x720, 1493 kbps, 23.976 fps [8 bit]
Аудио
:
1. Russian AC3, 48.0 KHz, 192 kbps, 2 ch (внешние) - [Animedia];
2. Russian AC3, 48.0 KHz, 160 kbps, 2 ch (внешние) - [AniFilm];
3. Russian AAC, 48.0 KHz, 165 kbps, 2 ch (внешние) - [AniDub];
4. Russian AC3, 48.0 KHz, 192 kbps, 2 ch (внешние) - [Anilibria];
5. Japanese AAC, 48.0 KHz, 192 kbps, 2 ch;
Субтитры:
[*] Russian: ASS, внешние;
Код: Выделить всё
General
      Format : MPEG-4
      Format profile : Base Media
      Codec ID : isom
      File size : 276 MiB
      Duration : 22mn 49s
      Overall bit rate mode : Variable
      Overall bit rate : 1 688 Kbps
      Encoded date : UTC 2016-04-09 21:34:20
      Tagged date : UTC 2016-04-09 21:34:20
   Video #1
      ID : 1
      Format : AVC
      Format/Info : Advanced Video Codec
      Format profile : High@L4.1
      Format settings, CABAC : Yes
      Format settings, ReFrames : 4 frames
      Codec ID : avc1
      Codec ID/Info : Advanced Video Coding
      Duration : 22mn 49s
      Bit rate : 1 493 Kbps
      Maximum bit rate : 15.8 Mbps
      Width : 1 280 pixels
      Height : 720 pixels
      Display aspect ratio : 16:9
      Frame rate mode : Constant
      Frame rate : 23.976 fps
      Color space : YUV
      Chroma subsampling : 4:2:0
      Bit depth : 8 bits
      Scan type : Progressive
      Bits/(Pixel*Frame) : 0.068
      Stream size : 244 MiB (88%)
      Title : 264:fps=23.976@GPAC0.5.1-DEV-rev4929
      Writing library : x264 core 129 r2245+729M 1a52e03
      Encoding settings : cabac=1 / ref=4 / deblock=1:1:-1 / analyse=0x3:0x113 / me=umh / subme=9 / psy=1 / fade_compensate=0.00 / psy_rd=1.00:0.00 / mixed_ref=1 / me_range=24 / chroma_me=1 / trellis=2 / 8x8dct=1 / cqm=0 / deadzone=21,11 / fast_pskip=1 / chroma_qp_offset=-2 / threads=8 / lookahead_threads=1 / sliced_threads=0 / nr=0 / decimate=1 / interlaced=0 / bluray_compat=0 / constrained_intra=0 / fgo=0 / bframes=9 / b_pyramid=2 / b_adapt=2 / b_bias=0 / direct=1 / weightb=1 / open_gop=0 / weightp=2 / keyint=240 / keyint_min=24 / scenecut=40 / intra_refresh=0 / rc=crf / mbtree=0 / crf=18.0 / qcomp=0.72 / qpmin=0 / qpmax=69 / qpstep=4 / ip_ratio=1.40 / pb_ratio=1.30 / aq=1:0.85
      Encoded date : UTC 2016-04-09 21:34:20
      Tagged date : UTC 2016-04-09 21:34:28
      Color primaries : BT.709
      Transfer characteristics : BT.709
      Matrix coefficients : BT.709
   Audio #2
      ID : 2
      Format : AAC
      Format/Info : Advanced Audio Codec
      Format profile : LC
      Codec ID : 40
      Duration : 22mn 49s
      Bit rate mode : Variable
      Bit rate : 192 Kbps
      Maximum bit rate : 218 Kbps
      Channel(s) : 2 channels
      Channel positions : Front: L R
      Sampling rate : 48.0 KHz
      Compression mode : Lossy
      Stream size : 31.3 MiB (11%)
      Language : Japanese
      Encoded date : UTC 2016-04-09 18:51:33
      Tagged date : UTC 2016-04-09 21:34:28

01. Шесть лет не виделись / It`s Been Six Years
- наличие озвучки
 
Не забывайте говорить Спасибо. Не уходите с раздачи!   
Торрент: Зарегистрирован [18 апр 2016, 07:18] Для скачивания .torrent
необходима регистрация
Или скачать с помощью
MediaGet
Статус:
Проверен
 
.torrent скачан: 0 раз
Хэш: 25b273f7795787dae5c4bf3d77ce393f87494e22
Размер: 392.39 МБ (411 446 175 байт)
Стать Автором раздачи
 
Аватара пользователя
Администратор
Администратор
 
Раздал: 56.73 ТБ
Скачал: 79.93 ТБ
Ратио: 0.710
Сообщения: 76582
Зарегистрирован: 07 янв 2011, 16:36


Вернуться в Аниме (QC подраздел)

Кто сейчас на конференции

Сейчас эту тему просматривают: нет зарегистрированных пользователей и гости: 1

Ресурс не предоставляет электронные версии произведений, а занимается лишь коллекционированием и каталогизацией ссылок, присылаемых и публикуемых на форуме нашими читателями. Если вы являетесь правообладателем какого-либо представленного материала и не желаете чтобы ссылка на него находилась в нашем каталоге, свяжитесь с нами и мы незамедлительно удалим её. Файлы для обмена на трекере предоставлены пользователями сайта, и администрация не несёт ответственности за их содержание. Просьба не заливать файлы, защищенные авторскими правами, а также файлы нелегального содержания!
cron