Покемон Навсегда. Селеби: Голос Леса (Фильм 4)/Pokemon 4ever. Celebi: Voice of the Forest [Movie] [Без хардсаба][RUS(int), ENG(int), SUB(int)][2002г., детское, комедия, приключения, фэнтези., iTns-DL][1080p][Американская версия][Digitally Remastered]

 
 Статистика раздачи 
Размер: 3.82 ГБ   |  Зарегистрирован: 08 авг 2016, 22:20   |   .torrent скачан: 3 раз
Сидеров: 2  [ 0 байт/сек ]     Личеров: 1  [ 0 байт/сек ]  
  

Покемон Навсегда. Селеби: Голос Леса (Фильм 4)/Pokemon 4ever. Celebi: Voice of the Forest [Movie] [Без хардсаба][RUS(int), ENG(int), SUB(int)][2002г., детское, комедия, приключения, фэнтези., iTns-DL][1080p][Американская версия][Digitally Remastered]

Сообщение aLaVodka » 08 авг 2016, 22:20

Покемон Навсегда (Фильм 4)/Pokemon 4ever

Селеби: Голос Леса / Celebi: Voice of the Forest

Страна: Япония / США
Год выпуска: 11 октября 2002 г.
Жанр: детское, комедия, приключения, фэнтези.
Тип: Movie
Продолжительность: 79 мин
Режиссер: Кунихико Юяма
Описание: Мальчик Сэм помогает хранителю леса - покемону Селеби спастись от человека, который охотится на покемонов. Благодаря способностям Селеби, им удается перенестись на 40 лет в будущее, в тот период, когда путешествовал Эш. Сэм объединяется силами вместе с Эшем и они отправляются помогать Селеби исцеляться.
Так начинались удивительные приключения Эша, Сэма, Селеби и Пикачу. Их возвращения в реальное время ждут враги. Мародер в железной маске из команды R хочет захватить Селеби. Он превращает его в черного покемона, забирает всю его силу и применяет её для того, чтобы стать обладателем всего мира.(с)multyasha
Рип iTns-DL, Сведение Аудио, Синхронизация субтитров - LightEssence
Трехголосая озвучка, субтитры - Mclovin345 - лицензия
Выбор качества:
1080p | |

Качество: iTns-DL | Тип релиза: Без хардсаба (софтсаб) | Формат видео: MKV
Релиз/Автор рипа: LightEssence
Совместимость с бытовыми плеерами: Нет

Видео: x264(8bit), 1920х1080, 6000 kbps, 23,976 fps(NTSC)
Аудио: Dolby AC3, 448kbps, 48kHz, 6ch - Русский (в составе контейнера) ; Озвучка: [MVO] - Профессиональный (Трехголосый, Закадровый) [West Video]
Аудио 2: Dolby AC3, 448kbps, 48kHz, 6ch - Английский (в составе контейнера) ; Озвучка 2: [DUB] - Профессиональный (Многоголосый, Дублированный) [Американская версия]
Субтитры: Advanced Sub Station [ASS] - RUS [SUB] - West Video, [ред. LightEssence]
Код:
Код: Выделить всё
General
Unique ID                   : 251729337353659851306106456363377894205 (0xBD614E8EF7C81B3B830A023A59A0233D)
Complete name               : E:\Покемон\Pokemon - The Movie 04\04.Pokemon 4ever - Celebi - Voice of the Forest [iTns-DL-1080p][LightEssence].mkv
Format                      : Matroska
Format version              : Version 4 / Version 2
File size                   : 3.82 GiB
Duration                    : 1 h 18 min
Overall bit rate            : 6 920 kb/s
Encoded date                : UTC 2016-08-07 22:02:04
Writing application         : mkvmerge v9.0.1 ('Obstacles') 64bit
Writing library             : libebml v1.3.3 + libmatroska v1.4.4

Video
ID                          : 1
Format                      : AVC
Format/Info                 : Advanced Video Codec
Format profile              : High@L4
Format settings, CABAC      : Yes
Format settings, ReFrames   : 4 frames
Codec ID                    : V_MPEG4/ISO/AVC
Duration                    : 1 h 18 min
Bit rate                    : 6 000 kb/s
Width                       : 1 920 pixels
Height                      : 1 080 pixels
Display aspect ratio        : 16:9
Frame rate mode             : Constant
Frame rate                  : 23.976 (24000/1001) FPS
Color space                 : YUV
Chroma subsampling          : 4:2:0
Bit depth                   : 8 bits
Scan type                   : Progressive
Bits/(Pixel*Frame)          : 0.121
Stream size                 : 3.32 GiB (87%)
Title                       : Pokemon 4ever - Celebi: Voice of the Forest - 2002 iTns-DL - [LightEssence][1080p][Digitally Remastered]
Writing library             : x264 core 146 r2538 121396c
Encoding settings           : cabac=1 / ref=3 / deblock=1:0:0 / analyse=0x3:0x133 / me=hex / subme=5 / psy=1 / psy_rd=1.00:0.00 / mixed_ref=0 / me_range=16 / chroma_me=1 / trellis=1 / 8x8dct=1 / cqm=0 / deadzone=21,11 / fast_pskip=1 / chroma_qp_offset=0 / threads=12 / lookahead_threads=3 / sliced_threads=0 / nr=0 / decimate=1 / interlaced=0 / bluray_compat=0 / constrained_intra=0 / bframes=16 / b_pyramid=2 / b_adapt=1 / b_bias=0 / direct=1 / weightb=0 / open_gop=0 / weightp=2 / keyint=250 / keyint_min=23 / scenecut=40 / intra_refresh=0 / rc_lookahead=40 / rc=abr / mbtree=1 / bitrate=6000 / ratetol=1.0 / qcomp=0.60 / qpmin=0 / qpmax=69 / qpstep=4 / ip_ratio=1.40 / aq=1:1.00
Language                    : English
Default                     : Yes
Forced                      : No
Color range                 : Limited
Color primaries             : BT.709
Transfer characteristics    : BT.709
Matrix coefficients         : BT.709

Audio #1
ID                          : 2
Format                      : AC-3
Format/Info                 : Audio Coding 3
Mode extension              : CM (complete main)
Format settings, Endianness : Big
Codec ID                    : A_AC3
Duration                    : 1 h 18 min
Bit rate mode               : Constant
Bit rate                    : 448 kb/s
Channel(s)                  : 6 channels
Channel positions           : Front: L C R, Side: L R, LFE
Sampling rate               : 48.0 kHz
Frame rate                  : 31.250 FPS (1536 spf)
Compression mode            : Lossy
Stream size                 : 253 MiB (6%)
Title                       : RUS [MVO] - Профессиональный (трехголосый, закадровый)
Language                    : Russian
Default                     : Yes
Forced                      : No

Audio #2
ID                          : 3
Format                      : AC-3
Format/Info                 : Audio Coding 3
Mode extension              : CM (complete main)
Format settings, Endianness : Big
Codec ID                    : A_AC3
Duration                    : 1 h 18 min
Bit rate mode               : Constant
Bit rate                    : 448 kb/s
Channel(s)                  : 6 channels
Channel positions           : Front: L C R, Side: L R, LFE
Sampling rate               : 48.0 kHz
Frame rate                  : 31.250 FPS (1536 spf)
Compression mode            : Lossy
Stream size                 : 253 MiB (6%)
Title                       : ENG [DUB]
Language                    : English
Default                     : No
Forced                      : No

Text
ID                          : 4
Format                      : ASS
Codec ID                    : S_TEXT/ASS
Codec ID/Info               : Advanced Sub Station Alpha
Duration                    : 1 h 14 min
Bit rate                    : 74 b/s
Count of elements           : 546
Compression mode            : Lossless
Stream size                 : 40.5 KiB (0%)
Title                       : RUS [SUB] - SubRip by LightEssence
Language                    : Russian
Default                     : No
Forced                      : No

Полнометражные фильмы Покемон / Pokemon the Movie
1. Покемон: Фильм Первый - Мьюту Наносит Ответный Удар / Pokemon: The First Movie - Mewtwo Strikes Back (Digitally Remastered) [BDRip] | | |
2. Покемон 2000 - Сила избранного / Pokemon: The Movie 2000 - The power of One (Digitally Remastered) [BDRip] | |
3. Покемон: Фильм 3 - Заклятие Аноунов / Pokemon: The Movie 3 - The Spell of Unown (Digitally Remastered) [BDRip] | |
8. Покемон: Фильм 8 - Лукарио и Тайна Мью (Мю и Герой Волны - Рукарио) / Pokemon The Movie 8 - Lucario and the Mystery of Mew (Mew to Hadou no Yuusha Lucario) [BDRip] | |
11. Покемон: Фильм 11 - Гиратина и Небесный Воин / Pokemon The Movie 11 - Giratina and the Sky Warrior [BDRip] | | | |
12. Покемон: Фильм 12 - Аркеус и Драгоценный Камень Жизни / Pokemon The Movie 12 - Arceus and the Jewel of Life [BDRip] | | | |
16. Покемон: Фильм 16 - Дженесект и возрождённая легенда / Pokemon The Movie 16 - Genesect and the Legend Awakened [BDRip] | | | |
18. Покемон: Фильм 18 - Хуппа и вековое противостояние / Pokemon The Movie 18 - Hoopa and the Clash of Ages [BDRip]| | | |
Покемон Сериал / Pokemon the Series
3. Покемон: Путешествие в Джото (Сезон 3) / Pokemon: The Johto Journeys (Сезон 3) [DVDRip x264] | |
6. Покемон: Новое Поколение (Сезон 6) / Advanced (Season 6) [WebRip x264] | |
7. Покемон: Новое Испытание (Сезон 7) / Advanced Challenge (Season 7) [WebRip x264] | |
8. Покемон: Новое Сражение (Сезон 8) / Advanced Battle (Season 8) [WebRip x264] | |
9. Покемон: Боевой Рубеж (Сезон 9) / Battle Frontier (Season 9) [WebRip x264] | |
 
Не забывайте говорить Спасибо. Не уходите с раздачи!   
Торрент: Зарегистрирован [08 авг 2016, 22:20] Для скачивания .torrent
необходима регистрация
Или скачать с помощью
MediaGet
Статус:
Проверен
 
.torrent скачан: 3 раз
Хэш: f6c4e58f27fd9a6d7f425df051f0ba58bc405c6a
Размер: 3.82 ГБ (4 098 303 955 байт)
Стать Автором раздачи
 
 
Раздал: 100 ГБ
Скачал: 0 байт
Ратио: Seed.
Сообщения: 189505
Зарегистрирован: 09 апр 2015, 20:00





  • Похожие торренты
    Ответы
    Просмотры
    Последнее сообщение

Вернуться в Аниме (Основной)

Кто сейчас на конференции

Сейчас эту тему просматривают: нет зарегистрированных пользователей и гости: 1

Ресурс не предоставляет электронные версии произведений, а занимается лишь коллекционированием и каталогизацией ссылок, присылаемых и публикуемых на форуме нашими читателями. Если вы являетесь правообладателем какого-либо представленного материала и не желаете чтобы ссылка на него находилась в нашем каталоге, свяжитесь с нами и мы незамедлительно удалим её. Файлы для обмена на трекере предоставлены пользователями сайта, и администрация не несёт ответственности за их содержание. Просьба не заливать файлы, защищенные авторскими правами, а также файлы нелегального содержания!
cron