Алсу - Я Пойду Чуть-Чуть Поплачу [2016, Pop, Master, 2160p]

 
 Статистика раздачи 
Размер: 1.98 ГБ   |  Зарегистрирован: 12 дек 2016, 21:30   |   .torrent скачан: 0 раз
Сидеров: 5  [ 0 байт/сек ]     Личеров: 1  [ 0 байт/сек ]  
  

Алсу - Я Пойду Чуть-Чуть Поплачу [2016, Pop, Master, 2160p]

Сообщение aLaVodka » 12 дек 2016, 21:30

Алсу - Я Пойду Чуть-Чуть Поплачу

Жанр: Pop
Продолжительность: 00:03:37
Год выпуска: 2016

Качество: Master
Разрешение видео/развертка: 2160p
Контейнер: MP4
Видео кодек: H.264
Аудио кодек: AAC
Видео: AVC, 3840x2160 (16:9), 25.000 fps, 80.0 Mbps
Аудио: AAC LC, 48.0 KHz, 2 ch, 317 Kbps
Код: Выделить всё
General
Complete name                            : N:\Alsu - Ya Poydu Chut-Chut Poplachu.mp4
Format                                   : MPEG-4
Format profile                           : Base Media / Version 2
Codec ID                                 : mp42 (mp42/mp41)
File size                                : 1.98 GiB
Duration                                 : 3 min 36 s
Overall bit rate mode                    : Variable
Overall bit rate                         : 78.6 Mb/s
Encoded date                             : UTC 2016-11-21 18:24:55
Tagged date                              : UTC 2016-11-21 18:25:56
©TIM                                     : 00:00:00:00
©TSC                                     : 25
©TSZ                                     : 1

Video
ID                                       : 1
Format                                   : AVC
Format/Info                              : Advanced Video Codec
Format profile                           : High@L5.2
Format settings, CABAC                   : Yes
Format settings, ReFrames                : 3 frames
Codec ID                                 : avc1
Codec ID/Info                            : Advanced Video Coding
Duration                                 : 3 min 36 s
Bit rate mode                            : Constant
Bit rate                                 : 80.0 Mb/s
Width                                    : 3 840 pixels
Height                                   : 2 160 pixels
Display aspect ratio                     : 16:9
Frame rate mode                          : Constant
Frame rate                               : 25.000 FPS
Standard                                 : PAL
Color space                              : YUV
Chroma subsampling                       : 4:2:0
Bit depth                                : 8 bits
Scan type                                : Progressive
Bits/(Pixel*Frame)                       : 0.386
Stream size                              : 1.97 GiB (100%)
Language                                 : English
Encoded date                             : UTC 2016-11-21 18:24:55
Tagged date                              : UTC 2016-11-21 18:24:55
Color range                              : Limited
Color primaries                          : BT.709
Transfer characteristics                 : BT.709
Matrix coefficients                      : BT.709

Audio
ID                                       : 2
Format                                   : AAC
Format/Info                              : Advanced Audio Codec
Format profile                           : LC
Codec ID                                 : 40
Duration                                 : 3 min 36 s
Source duration                          : 3 min 36 s
Bit rate mode                            : Variable
Bit rate                                 : 317 kb/s
Maximum bit rate                         : 462 kb/s
Channel(s)                               : 2 channels
Channel positions                        : Front: L R
Sampling rate                            : 48.0 kHz
Frame rate                               : 46.875 FPS (1024 spf)
Compression mode                         : Lossy
Stream size                              : 8.20 MiB (0%)
Source stream size                       : 8.20 MiB (0%)
Language                                 : English
Encoded date                             : UTC 2016-11-21 18:24:55
Tagged date                              : UTC 2016-11-21 18:24:55
 
Не забывайте говорить Спасибо. Не уходите с раздачи!   
Торрент: Зарегистрирован [12 дек 2016, 21:30] Для скачивания .torrent
необходима регистрация
Или скачать с помощью
MediaGet
Статус:
Проверен
 
.torrent скачан: 0 раз
Хэш: a6c151681018bb12b41dfe67a2a3dee84164fe66
Размер: 1.98 ГБ (2 128 479 214 байт)
Стать Автором раздачи
 
 
Раздал: 100 ГБ
Скачал: 0 байт
Ратио: Seed.
Сообщения: 189733
Зарегистрирован: 09 апр 2015, 20:00


  • Похожие торренты
    Ответы
    Просмотры
    Последнее сообщение

Вернуться в Отечественная Поп-музыка, Шансон, Eurodance, Disco (HD Video)

Кто сейчас на конференции

Сейчас эту тему просматривают: нет зарегистрированных пользователей и гости: 1

Ресурс не предоставляет электронные версии произведений, а занимается лишь коллекционированием и каталогизацией ссылок, присылаемых и публикуемых на форуме нашими читателями. Если вы являетесь правообладателем какого-либо представленного материала и не желаете чтобы ссылка на него находилась в нашем каталоге, свяжитесь с нами и мы незамедлительно удалим её. Файлы для обмена на трекере предоставлены пользователями сайта, и администрация не несёт ответственности за их содержание. Просьба не заливать файлы, защищенные авторскими правами, а также файлы нелегального содержания!
cron