Рождество Христово. Трансляция из Храма Христа Спасителя / Россия 1HD [06.01.2017, Богослужение, HDRip/AVI/XviD, 400p]

 
 Статистика раздачи 
Размер: 1.76 ГБ   |  Зарегистрирован: 07 янв 2017, 16:28   |   .torrent скачан: 0 раз
Сидеров: 1  [ 0 байт/сек ]     Личеров: 0  [ 0 байт/сек ]  
  

Рождество Христово. Трансляция из Храма Христа Спасителя / Россия 1HD [06.01.2017, Богослужение, HDRip/AVI/XviD, 400p]

Сообщение aLaVodka » 07 янв 2017, 16:28

Рождество Христово
Трансляция из Храма Христа Спасителя


Дата/Год выпуска: 06.01.2017
Страна: Россия
Жанр: Богослужение
Продолжительность: 02:14:00
Перевод: Не требуется
Русские субтитры: нет
Телеканал:
Описание: Телеканал "Россия 1" представляет трансляцию рождественского богослужения из Храма Христа Спасителя в Москве. Рождество – один из главных христианских праздников, установленный в честь рождения Иисуса Христа от Девы Марии. Русская православная церковь и другие церкви, использующие юлианский календарь, празднуют Рождество 7 января.
Автор рипа/записи: gmm120880


Качество: HDRip
Формат видео: AVI
Видео: 704x400 (16:9), 25 fps, XviD, ~1750 Kbps
Аудио: 48 kHz, MP3, 2 ch, ~128.00 kbps avg

Код: Выделить всё
Полное имя                               : Рождество Христово-2017. Трансляция из Храма Христа Спасителя (Россия 1HD)[400p gmm120880].avi
Формат                                   : AVI
Формат/Информация                        : Audio Video Interleave
Размер файла                             : 1,76 Гбайт
Продолжительность                        : 2 ч. 14 м.
Общий поток                              : 1885 Кбит/сек
Программа кодирования                    : TMPGEnc Video Mastering Works 5 Version. 5.0.6.38
Библиотека кодирования                   : TMPGEnc Video Mastering Works 5 Version. 5.0.6.38

Видео
Идентификатор                            : 0
Формат                                   : MPEG-4 Visual
Профиль формата                          : Advanced Simple@L5
Параметр BVOP формата                    : 2
Параметр QPel формата                    : Нет
Параметр GMC формата                     : Без точки перехода
Параметр матрицы формата                 : Default (H.263)
Идентификатор кодека                     : XVID
Идентификатор кодека/Подсказка           : XviD
Продолжительность                        : 2 ч. 14 м.
Битрейт                                  : 1749 Кбит/сек
Ширина                                   : 704 пикселя
Высота                                   : 400 пикселей
Соотношение сторон                       : 16:9
Частота кадров                           : 25,000 кадров/сек
Цветовое пространство                    : YUV
Субдискретизация насыщенности            : 4:2:0
Битовая глубина                          : 8 бит
Тип развёртки                            : Прогрессивная
Метод сжатия                             : С потерями
Бит/(Пиксели*Кадры)                      : 0.248
Размер потока                            : 1,64 Гбайт (93%)
Библиотека кодирования                   : XviD 73

Аудио
Идентификатор                            : 1
Формат                                   : MPEG Audio
Версия формата                           : Version 1
Профиль формата                          : Layer 3
Режим                                    : Joint stereo
Расширение режима                        : MS Stereo
Идентификатор кодека                     : 55
Идентификатор кодека/Подсказка           : MP3
Продолжительность                        : 2 ч. 14 м.
Вид битрейта                             : Постоянный
Битрейт                                  : 128 Кбит/сек
Каналы                                   : 2 канала
Частота                                  : 48,0 КГц
Метод сжатия                             : С потерями
Размер потока                            : 123 Мбайт (7%)
Выравнивание                             : Соединение по промежуткам
Продолжительность промежутка             : 250  мс. (6,25 видеокадров)
Время предзагрузки промежутка            : 192  мс.

 
Не забывайте говорить Спасибо. Не уходите с раздачи!   
Торрент: Зарегистрирован [07 янв 2017, 16:28] Для скачивания .torrent
необходима регистрация
Или скачать с помощью
MediaGet
Статус:
Проверен
 
.torrent скачан: 0 раз
Хэш: 50bc0dcb1ada75e297c6e3988265705176ff39e2
Размер: 1.76 ГБ (1 894 437 368 байт)
Стать Автором раздачи
 
 
Раздал: 100 ГБ
Скачал: 0 байт
Ратио: Seed.
Сообщения: 189733
Зарегистрирован: 09 апр 2015, 20:00


  • Похожие торренты
    Ответы
    Просмотры
    Последнее сообщение

Вернуться в Христианство (видео)

Кто сейчас на конференции

Сейчас эту тему просматривают: нет зарегистрированных пользователей и гости: 1

Ресурс не предоставляет электронные версии произведений, а занимается лишь коллекционированием и каталогизацией ссылок, присылаемых и публикуемых на форуме нашими читателями. Если вы являетесь правообладателем какого-либо представленного материала и не желаете чтобы ссылка на него находилась в нашем каталоге, свяжитесь с нами и мы незамедлительно удалим её. Файлы для обмена на трекере предоставлены пользователями сайта, и администрация не несёт ответственности за их содержание. Просьба не заливать файлы, защищенные авторскими правами, а также файлы нелегального содержания!
cron