Одиссея / L'odyssée / L'odyssee (Жером Салль / Jérôme Salle) [2016, Франция, приключения, биография, драма, BDRip-AVC] Dub + Original Fre + Sub Fre

 
 Статистика раздачи 
Размер: 2.05 ГБ   |  Зарегистрирован: 09 мар 2017, 12:20   |   .torrent скачан: 0 раз
Сидеров: 102  [ 0 байт/сек ]     Личеров: 33  [ 0 байт/сек ]  
  

Одиссея / L'odyssée / L'odyssee (Жером Салль / Jérôme Salle) [2016, Франция, приключения, биография, драма, BDRip-AVC] Dub + Original Fre + Sub Fre

Сообщение Lester » 09 мар 2017, 12:20

Одиссея / L'odyssée / L'odyssee

Страна: Франция
Жанр: приключения, биография, драма
Год выпуска: 2016
Продолжительность: 02:02:55

Перевод: Профессиональный (дублированный)
Cубтитры: французские (forced)
Оригинальная аудиодорожка: французский

Режиссер: Жером Салль / Jérôme Salle

В ролях: Ламбер Вильсон, Пьер Нинэ, Одри Тоту, Лоран Люка, Бенжамин Лаверн, Венсан Энен, Тибо де Монталембер, Рогер Ван Хол, Хлоя Хиршман, Адам Нилл

Описание: Есть пути, которые не отыщешь на картах. Есть цели, которые укажет только любовь. "Одиссея" - самый масштабный приключенческий проект современного французского кино. История героя, открывшего человечеству "второй космос". Его экспедиции вдохновили миллионы. Его главное путешествие осталось тайной.

Сэмпл: http://sendfile.su/1315970

Качество видео: BDRip-AVC (L'Odyssee.2016.BDREMUX.1080p_rutor)
Формат видео: MKV

Видео: x264, 1152x434 (2.654:1) 23,976 fps, ~1565 kbps, 0,131 bit/pixel
Аудио 1: 48 kHz, AC3 Dolby Digital, 3/2 (L,C,R,l,r) + LFE ch, ~384 kbps [русский, TV1000 Premium HD]
Аудио 2: 48 kHz, AC3 Dolby Digital, 3/2 (L,C,R,l,r) + LFE ch, ~448 kbps [английский]
Формат субтитров: softsub (SRT)
General
Unique ID : 253725037152298060474929242870262572932 (0xBEE1AA27C35D9D3DB8FC72401EB8A784)
Format : Matroska
Format version : Version 4 / Version 2
File size : 2.05 GiB
Duration : 2h 2mn
Overall bit rate : 2 389 Kbps
Encoded date : UTC 2017-03-09 06:35:45
Writing application : mkvmerge v9.9.0 ('Pick Up') 64bit
Writing library : libebml v1.3.4 + libmatroska v1.4.5
Video #1
ID : 1
Format : AVC
Format/Info : Advanced Video Codec
Format profile : High@L4.1
Format settings, CABAC : Yes
Format settings, ReFrames : 12 frames
Codec ID : V_MPEG4/ISO/AVC
Duration : 2h 2mn
Bit rate : 1 565 Kbps
Width : 1 152 pixels
Height : 434 pixels
Display aspect ratio : 2.654
Frame rate mode : Constant
Frame rate : 23.976 (24000/1001) fps
Color space : YUV
Chroma subsampling : 4:2:0
Bit depth : 8 bits
Scan type : Progressive
Bits/(Pixel*Frame) : 0.131
Stream size : 1.34 GiB (65%)
Writing library : x264 core 148 r2638 7599210
Encoding settings : cabac=1 / ref=12 / deblock=1:-3:-2 / analyse=0x3:0x133 / me=umh / subme=10 / psy=1 / psy_rd=1.00:0.00 / mixed_ref=1 / me_range=32 / chroma_me=1 / trellis=2 / 8x8dct=1 / cqm=0 / deadzone=21,11 / fast_pskip=0 / chroma_qp_offset=-2 / threads=6 / lookahead_threads=1 / sliced_threads=0 / nr=0 / decimate=1 / interlaced=0 / bluray_compat=0 / constrained_intra=0 / bframes=14 / b_pyramid=2 / b_adapt=2 / b_bias=0 / direct=1 / weightb=1 / open_gop=0 / weightp=2 / keyint=250 / keyint_min=23 / scenecut=40 / intra_refresh=0 / rc=2pass / mbtree=0 / bitrate=1565 / ratetol=1.0 / qcomp=0.65 / qpmin=0 / qpmax=69 / qpstep=4 / cplxblur=20.0 / qblur=0.5 / ip_ratio=1.40 / pb_ratio=1.30 / aq=3:0.90
Language : English
Default : Yes
Forced : No
Audio #2
ID : 2
Format : AC-3
Format/Info : Audio Coding 3
Mode extension : CM (complete main)
Format settings, Endianness : Big
Codec ID : A_AC3
Duration : 2h 2mn
Bit rate mode : Constant
Bit rate : 384 Kbps
Channel(s) : 6 channels
Channel positions : Front: L C R, Side: L R, LFE
Sampling rate : 48.0 KHz
Frame rate : 31.250 fps (1536 spf)
Compression mode : Lossy
Stream size : 338 MiB (16%)
Language : Russian
Default : Yes
Forced : No
Audio #3
ID : 3
Format : AC-3
Format/Info : Audio Coding 3
Mode extension : CM (complete main)
Format settings, Endianness : Big
Codec ID : A_AC3
Duration : 2h 2mn
Bit rate mode : Constant
Bit rate : 448 Kbps
Channel(s) : 6 channels
Channel positions : Front: L C R, Side: L R, LFE
Sampling rate : 48.0 KHz
Frame rate : 31.250 fps (1536 spf)
Compression mode : Lossy
Stream size : 394 MiB (19%)
Language : French
Default : No
Forced : No
Text #4
ID : 4
Format : UTF-8
Codec ID : S_TEXT/UTF8
Codec ID/Info : UTF-8 Plain Text
Duration : 1h 44mn
Bit rate : 9 bps
Count of elements : 222
Stream size : 7.37 KiB (0%)
Title : Forced
Language : French
Default : No
Forced : No
raw [info]: 1152x434p 1:1 @ 24000/1001 fps (cfr)
x264 [info]: using SAR=1/1
x264 [info]: using cpu capabilities: MMX2 SSE2Fast SSSE3 SSE4.2 AVX XOP FMA4 FMA3 LZCNT BMI1
x264 [info]: profile High, level 4.1
x264 [info]: frame I:1239 Avg QP:15.82 size: 60666
x264 [info]: frame P:36938 Avg QP:19.60 size: 17410
x264 [info]: frame B:138660 Avg QP:21.86 size: 5160
x264 [info]: consecutive B-frames: 1.7% 1.6% 7.7% 22.2% 17.3% 33.1% 6.9% 3.2% 1.6% 0.9% 0.9% 0.8% 0.9% 0.8% 0.3%
x264 [info]: mb I I16..4: 9.3% 71.4% 19.4%
x264 [info]: mb P I16..4: 1.2% 6.1% 1.4% P16..4: 42.9% 21.1% 16.5% 0.5% 0.1% skip:10.3%
x264 [info]: mb B I16..4: 0.1% 0.4% 0.1% B16..8: 40.8% 9.7% 2.3% direct: 3.0% skip:43.6% L0:45.4% L1:47.0% BI: 7.7%
x264 [info]: 8x8 transform intra:70.0% inter:64.6%
x264 [info]: coded y,uvDC,uvAC intra: 78.6% 71.5% 46.5% inter: 15.3% 10.6% 1.8%
x264 [info]: i16 v,h,dc,p: 22% 42% 4% 32%
x264 [info]: i8 v,h,dc,ddl,ddr,vr,hd,vl,hu: 10% 11% 6% 9% 14% 12% 14% 10% 13%
x264 [info]: i4 v,h,dc,ddl,ddr,vr,hd,vl,hu: 17% 11% 3% 9% 14% 12% 13% 9% 13%
x264 [info]: i8c dc,h,v,p: 36% 31% 19% 15%
x264 [info]: Weighted P-Frames: Y:8.9% UV:4.1%
x264 [info]: ref P L0: 42.9% 9.3% 17.4% 7.6% 5.7% 4.3% 3.8% 2.1% 1.9% 1.7% 1.6% 1.5% 0.3% 0.0%
x264 [info]: ref B L0: 66.2% 12.9% 7.2% 3.9% 2.7% 2.2% 1.9% 1.2% 0.9% 0.6% 0.3%
x264 [info]: ref B L1: 90.5% 9.5%
x264 [info]: kb/s:1555.10

x264 [total]: encoded 176837 frames, 9.29 fps, 1555.10 kb/s

 
Не забывайте говорить Спасибо. Не уходите с раздачи!   
Торрент: Зарегистрирован [09 мар 2017, 12:20] Для скачивания .torrent
необходима регистрация
Или скачать с помощью
MediaGet
Статус:
Проверен
 
.torrent скачан: 0 раз
Хэш: 8591681c257b2104cb91753d16c56a1a005e6b70
Размер: 2.05 ГБ (2 202 605 043 байт)
Стать Автором раздачи
 
 
Раздал: 100 ГБ
Скачал: 0 байт
Ратио: Seed.
Сообщения: 113132
Зарегистрирован: 09 апр 2015, 23:00


  • Похожие торренты
    Ответы
    Просмотры
    Последнее сообщение

Вернуться в Зарубежные фильмы 2016-2017 года

Кто сейчас на конференции

Сейчас эту тему просматривают: нет зарегистрированных пользователей и гости: 1

Ресурс не предоставляет электронные версии произведений, а занимается лишь коллекционированием и каталогизацией ссылок, присылаемых и публикуемых на форуме нашими читателями. Если вы являетесь правообладателем какого-либо представленного материала и не желаете чтобы ссылка на него находилась в нашем каталоге, свяжитесь с нами и мы незамедлительно удалим её. Файлы для обмена на трекере предоставлены пользователями сайта, и администрация не несёт ответственности за их содержание. Просьба не заливать файлы, защищенные авторскими правами, а также файлы нелегального содержания!
cron