Загадка Турандот (Николай Попков) [2014, мюзикл, SATRip] Московский музыкальный театр Владимира Назарова

 
 Статистика раздачи 
Размер: 1.46 ГБ   |  Зарегистрирован: 10 авг 2017, 22:32   |   .torrent скачан: 0 раз
Сидеров: 17  [ 0 байт/сек ]     Личеров: 6  [ 0 байт/сек ]  
  

Загадка Турандот (Николай Попков) [2014, мюзикл, SATRip] Московский музыкальный театр Владимира Назарова

Сообщение Nakazhu » 10 авг 2017, 22:32

Загадка Турандот
Название театра: Московский музыкальный театр Владимира Назарова.
Год выпуска: 2014.
Жанр: мюзикл.
Продолжительность: 02:35:15.
Режиссер: Николай Попков.
Действующие лица и исполнители: актеры театра Владимира Назарова.
Описание:
Спектакль по сказке Карло Гоцци "Турандот".
Турандот - гордая и своевольная принцесса Китая. Она отказывается выходить замуж, уверенная, что любой мужчина коварен по своей природе, и в его сердце нет места для любви. Желая избежать нежеланного брака и при этом не злить отца, она предлагает каждому жениху три загадки. Но цена высока: либо рука принцессы в случае успеха, а в случае провала - голова с плеч. Многие претенденты на руку девушки лишились жизни в этой борьбе, но не принц Калаф...

Дополнительная информация:
Страна: Россия .
Режиссер-постановщик спектакля: Артем Назаров, Елена Черняк.
Автор пьесы: Карло Гоцци.
Постановка и перевод: Николай Попков.
Автор стихов: Александр Шишов.
Композитор: Владимир Назаров.
Сценография: Евгений Базанов.
Художник по костюмам: Ольга Иванова.
Релиз

Качество: SATRip
Формат: AVI
Видео: 720x416 (1.73:1), 25 fps, DivX Codec 6.8.3 ~1213 kbps avg, 0.16 bit/pixel
Аудио: 44.100 kHz, MPEG Layer 3, 2 ch, ~128.00 kbps avg
General
Complete name : Zagadka.Turandot_Moskovskij.muzykal'nyj.teatr.Vladimira.Nazarova.2014.DivX.SATRip.fenixclub.avi
Format : AVI
Format/Info : Audio Video Interleave
File size : 1.46 GiB
Duration : 2h 35mn
Overall bit rate : 1 351 Kbps
Video
ID : 0
Format : MPEG-4 Visual
Format settings, BVOP : 1
Format settings, QPel : No
Format settings, GMC : No warppoints
Format settings, Matrix : Default (H.263)
Codec ID : DX50
Codec ID/Hint : DivX 5
Duration : 2h 35mn
Bit rate : 1 213 Kbps
Width : 720 pixels
Height : 416 pixels
Display aspect ratio : 1.731
Frame rate : 25.000 fps
Color space : YUV
Chroma subsampling : 4:2:0
Bit depth : 8 bits
Scan type : Progressive
Compression mode : Lossy
Bits/(Pixel*Frame) : 0.162
Stream size : 1.32 GiB (90%)
Writing library : DivX 6.8.3-6.8.4 (UTC 2008-06-07)
Audio
ID : 1
Format : MPEG Audio
Format version : Version 1
Format profile : Layer 3
Mode : Joint stereo
Mode extension : MS Stereo
Codec ID : 55
Codec ID/Hint : MP3
Duration : 2h 35mn
Bit rate mode : Constant
Bit rate : 128 Kbps
Channel(s) : 2 channels
Sampling rate : 44.1 KHz
Compression mode : Lossy
Stream size : 142 MiB (9%)
Alignment : Split accross interleaves
Interleave, duration : 40 ms (1.00 video frame)
Interleave, preload duratio : 500 ms
Writing library : LAME3.98.2
 
Не забывайте говорить Спасибо. Не уходите с раздачи!   
Торрент: Зарегистрирован [10 авг 2017, 22:32] Для скачивания .torrent
необходима регистрация
Или скачать с помощью
MediaGet
Статус:
Проверен
 
.torrent скачан: 0 раз
Хэш: 9e28fa9ed558c771888e67a3cdc959a3c8918afd
Размер: 1.46 ГБ (1 572 977 546 байт)
Стать Автором раздачи
 
 
Раздал: 0 байт
Скачал: 0 байт
Ратио: Inf.
Сообщения: 291286
Зарегистрирован: 17 апр 2014, 13:57


  • Похожие торренты
    Ответы
    Просмотры
    Последнее сообщение

Вернуться в Театр

Кто сейчас на конференции

Сейчас эту тему просматривают: нет зарегистрированных пользователей и гости: 1

Ресурс не предоставляет электронные версии произведений, а занимается лишь коллекционированием и каталогизацией ссылок, присылаемых и публикуемых на форуме нашими читателями. Если вы являетесь правообладателем какого-либо представленного материала и не желаете чтобы ссылка на него находилась в нашем каталоге, свяжитесь с нами и мы незамедлительно удалим её. Файлы для обмена на трекере предоставлены пользователями сайта, и администрация не несёт ответственности за их содержание. Просьба не заливать файлы, защищенные авторскими правами, а также файлы нелегального содержания!
cron