Друг невесты / Made of Honor (Пол Вейланд / Paul Weiland) [2008, США, Великобритания, романтическая комедия, HDTV 1080i] [Open Matte] Dub (Пифагор)

 
 Статистика раздачи 
Размер: 5.85 ГБ   |  Зарегистрирован: 12 авг 2017, 20:09   |   .torrent скачан: 0 раз
Сидеров: 8  [ 0 байт/сек ]     Личеров: 2  [ 0 байт/сек ]  
  

Друг невесты / Made of Honor (Пол Вейланд / Paul Weiland) [2008, США, Великобритания, романтическая комедия, HDTV 1080i] [Open Matte] Dub (Пифагор)

Сообщение Nakazhu » 12 авг 2017, 20:09

Друг невесты | Made of Honor
«Его последний шанс завоевать ее сердце»
Open Matte
Страна: США, Великобритания
Студия: Columbia Pictures, Relativity Media, Original Film
Жанр: романтическая комедия
Год выпуска: 2008
Продолжительность: 01:36:43
Перевод: Профессиональный (дублированный) Пифагор
Субтитры: нет
Оригинальная аудиодорожка: нет
Режиссер: Пол Вейланд / Paul Weiland
В ролях: Патрик Демпси, Мишель Монахэн, Кевин МакКидд, Кадим Хардисон, Крис Мессина, Ричмонд Аркетт, Бизи Филиппс, Уитни Каммингс, Теа Эмили Нельсон, Кэтлин Куинлен
Описание: Ловелас Том Бэйли наконец-то осознает, что любит одну-единственную женщину - свою лучшую подругу Ханну, с которой познакомился, будучи студентом десять лет назад. Однако пока нерешительный Том медлит с признанием, на горизонте девушки появляется состоятельный шотландец Колин, который тут же делает Ханне предложение. И надо же такому случиться: он, Том, должен стать свидетелем счастья своей любимой женщины, ведь именно его выбирает Ханна своим другом невесты! Том соглашается на столь незавидную роль, надеясь, что свадьбу еще можно расстроить...

>>> Собственная запись со спутника Eutelsat 36A/36B (36°E) | КиноПремиум HD (эфир 12.08.2017г.)
Тип релиза: HDTV 1080i
Контейнер: MKV
Видео: MPEG-4 AVC / PAL 16:9 / 1920x1080 (1,78:1) / 8206 kbps / 25,000 fps / 0.079 bit/pixel / Main@L4
Аудио: Russian | Dolby Digital Audio / 5.1 Ch / 48 kHz / 448 kbps / 16-bit | DUB | Пифагор
Навигация по главам: есть
Код:
Код: Выделить всё
Общее
Уникальный идентификатор                 : 182094733217631391355966950036162636459 (0x88FE2B8150087D8B81189C6532126AAB)
Полное имя                               : D:\Made of Honor 2008 Open Matte 1080i HDTV MPEG4 DD5.1.mkv
Формат                                   : Matroska
Версия формата                           : Version 4 / Version 2
Размер файла                             : 5,85 Гбайт
Продолжительность                        : 1 ч. 36 м.
Общий поток                              : 8661 Кбит/сек
Дата кодирования                         : UTC 2017-08-12 12:39:25
Программа кодирования                    : mkvmerge v14.0.0 ('Flow') 64bit
Библиотека кодирования                   : libebml v1.3.4 + libmatroska v1.4.5
Видео
Идентификатор                            : 1
Формат                                   : AVC
Формат/Информация                        : Advanced Video Codec
Профиль формата                          : Main@L4
Параметр CABAC формата                   : Да
Параметр RefFrames формата               : 3 кадра
Идентификатор кодека                     : V_MPEG4/ISO/AVC
Продолжительность                        : 1 ч. 36 м.
Битрейт                                  : 8206 Кбит/сек
Ширина                                   : 1920 пикселей
Высота                                   : 1080 пикселей
Соотношение сторон                       : 16:9
Режим частоты кадров                     : Переменный
Частота кадров                           : 50,000 кадров/сек
Частота кадров в оригинале               : 25,000 кадров/сек
Стандарт вещания                         : Component
Цветовое пространство                    : YUV
Субдискретизация насыщенности            : 4:2:0
Битовая глубина                          : 8 бит
Тип развёртки                            : Чересстрочная
Метод сохранения типа развёртки          : Раздельные поля
Порядок развёртки                        : Верхнее поле первое
Бит/(Пиксели*Кадры)                      : 0.079
Размер потока                            : 5,54 Гбайт (95%)
Язык                                     : English
Default                                  : Да
Forced                                   : Нет
Цветовой диапазон                        : Limited
Основные цвета                           : BT.709
Характеристики трансфера                 : BT.709
Коэффициенты матрицы                     : BT.709
Аудио
Идентификатор                            : 2
Формат                                   : AC-3
Формат/Информация                        : Audio Coding 3
Параметр Endianness формата              : Big
Идентификатор кодека                     : A_AC3
Продолжительность                        : 1 ч. 36 м.
Вид битрейта                             : Постоянный
Битрейт                                  : 448 Кбит/сек
Каналы                                   : 6 каналов
Расположение каналов                     : Front: L C R, Side: L R, LFE
Частота                                  : 48,0 КГц
Частота кадров                           : 31,250 кадров/сек (1536 SPF)
Битовая глубина                          : 16 бит
Метод сжатия                             : С потерями
Размер потока                            : 310 Мбайт (5%)
Заголовок                                : DUB | Пифагор | HDTV
Язык                                     : Russian
ServiceKind/String                       : Complete Main
Default                                  : Да
Forced                                   : Нет
Меню
00:00:00.000                             : en:Chapter 01
00:06:08.400                             : en:Chapter 02
00:09:28.960                             : en:Chapter 03
00:12:53.120                             : en:Chapter 04
00:19:06.120                             : en:Chapter 05
00:23:12.360                             : en:Chapter 06
00:27:31.800                             : en:Chapter 07
00:31:28.480                             : en:Chapter 08
00:32:46.840                             : en:Chapter 09
00:37:29.080                             : en:Chapter 10
00:41:49.920                             : en:Chapter 11
00:45:11.360                             : en:Chapter 12
00:48:51.080                             : en:Chapter 13
00:52:44.800                             : en:Chapter 14
00:56:48.800                             : en:Chapter 15
00:58:39.480                             : en:Chapter 16
01:01:03.160                             : en:Chapter 17
01:02:23.160                             : en:Chapter 18
01:05:27.240                             : en:Chapter 19
01:08:07.400                             : en:Chapter 20
01:12:14.760                             : en:Chapter 21
01:16:00.200                             : en:Chapter 22
01:18:20.480                             : en:Chapter 23
01:22:05.080                             : en:Chapter 24
01:25:23.600                             : en:Chapter 25
01:27:18.360                             : en:Chapter 26
01:31:15.480                             : en:Chapter 27
01:32:12.760                             : en:Chapter 28

Blu-Ray --------vs.-------- HDTV





 
Не забывайте говорить Спасибо. Не уходите с раздачи!   
Торрент: Зарегистрирован [12 авг 2017, 20:09] Для скачивания .torrent
необходима регистрация
Или скачать с помощью
MediaGet
Статус:
Проверен
 
.torrent скачан: 0 раз
Хэш: 09184fd12dcf7bfc4003118527dfacd2309f1607
Размер: 5.85 ГБ (6 282 537 940 байт)
Стать Автором раздачи
 
 
Раздал: 0 байт
Скачал: 0 байт
Ратио: Inf.
Сообщения: 327187
Зарегистрирован: 17 апр 2014, 13:57


  • Похожие торренты
    Ответы
    Просмотры
    Последнее сообщение

Вернуться в HD Video на модерации

Кто сейчас на конференции

Сейчас эту тему просматривают: нет зарегистрированных пользователей и гости: 1

Ресурс не предоставляет электронные версии произведений, а занимается лишь коллекционированием и каталогизацией ссылок, присылаемых и публикуемых на форуме нашими читателями. Если вы являетесь правообладателем какого-либо представленного материала и не желаете чтобы ссылка на него находилась в нашем каталоге, свяжитесь с нами и мы незамедлительно удалим её. Файлы для обмена на трекере предоставлены пользователями сайта, и администрация не несёт ответственности за их содержание. Просьба не заливать файлы, защищенные авторскими правами, а также файлы нелегального содержания!
cron