Побег из Атлантиды / Escape from Atlantis (1997) VHSRip | P2

 
 Статистика раздачи 
Размер: 744.57 МБ   |  Зарегистрирован: 12 авг 2017, 23:19   |   .torrent скачан: 471 раз
Сидеров: 125  [ 0 байт/сек ]     Личеров: 18  [ 0 байт/сек ]  
  

Побег из Атлантиды / Escape from Atlantis (1997) VHSRip | P2

Сообщение explosiveone » 12 авг 2017, 23:19

Информация о фильме
Название: Побег из Атлантиды
Оригинальное название: Escape from Atlantis
Год выхода: 1997
Жанр: Фэнтези, фантастика, приключения
Режиссёр: Стрэтфорд Хэмилтон / Strathford Hamilton
В ролях: Джефф Спикмэн (Matt Spencer), Тим Томерсон (Liam Gallagher), Джастин Бернетт (Adam Spencer), Мерседес МакНаб (Claudia Spencer), Брек Уилсон (Chris Spencer), Кристина Анапау-Ропер (Katriana), Майкл Ли Гогин (Widge the Magician), Аль Хэррингтон (Argus, Temple of MorpheusPrisoner), Брайан Блум (Joriath)

О фильме: Любящий отец, пытающийся восстановить отношения со своими тремя непослушными сыновьями — подростками, берет их с собой в путешествие под парусом на Багамы. Когда они входят в таинственные воды Бермудского треугольника, то волшебным образом перемещаются в мир легенд и фантазий, в котором переживают самые волнующие приключения в жизни. Затерявшись в волшебном мире Атлантиды, необычайном месте, где сбываются фантазии, семья Спенсеров должна сразиться с армиями злодеев и высвободить древние силы добра, иначе им никогда не вернуться домой...



Страна: США
Студия: Universal TV, Harris Entertainment Inc.
Продолжительность: 01:32:11
Перевод: Профессиональный (двухголосый, закадровый) - Премьер Видео Фильм
Роли озвучивали: Всеволод Кузнецов и Людмила Ильина

Файл
Формат: avi
Качество: VHSRip (DVD5)
Видео: XviD, 512х384, 23.976fps, 992kbps
Аудио: MPEG Layer 3, 2ch, 48000Hz, 128kbps



Общее
Полное имя : Pobeg.Iz.Atlantidy.1997.P2.VHSRip.700.CurHaJI.avi
Формат : AVI
Формат/Информация : Audio Video Interleave
Размер файла : 745 Мбайт
Продолжительность : 1 ч. 32 м.
Общий поток : 1129 Кбит/сек
Название фильма : Pobeg.Iz.Atlantidy.1997.P2.VHSRip.700.CurHaJI
Библиотека кодирования : VirtualDub build 35491/release

Видео
Идентификатор : 0
Формат : MPEG-4 Visual
Профиль формата : Advanced Simple@L5
Параметр BVOP формата : 1
Параметр QPel формата : Нет
Параметр GMC формата : Без точки перехода
Параметр матрицы формата : Выборочная
Идентификатор кодека : XVID
Идентификатор кодека/Подсказка : XviD
Продолжительность : 1 ч. 32 м.
Битрейт : 992 Кбит/сек
Ширина : 512 пикселей
Высота : 384 пикселя
Соотношение сторон : 4:3
Частота кадров : 23,976 (24000/1001) кадра/сек
Цветовое пространство : YUV
Субдискретизация насыщенности : 4:2:0
Битовая глубина : 8 бит
Тип развёртки : Прогрессивная
Метод сжатия : С потерями
Бит/(Пиксели*Кадры) : 0.210
Размер потока : 654 Мбайт (88%)
Библиотека кодирования : XviD 73

Аудио
Идентификатор : 1
Формат : MPEG Audio
Версия формата : Version 1
Профиль формата : Layer 3
Идентификатор кодека : 55
Идентификатор кодека/Подсказка : MP3
Продолжительность : 1 ч. 32 м.
Вид битрейта : Постоянный
Битрейт : 128 Кбит/сек
Каналы : 2 канала
Частота : 48,0 КГц
Метод сжатия : С потерями
Размер потока : 84,4 Мбайт (11%)
Выравнивание : Разделение по промежуткам
Продолжительность промежутка : 42 мс. (1,00 видеокадр)
Время предзагрузки промежутка : 500 мс.
Библиотека кодирования : LAME3.99r
Настройки программы : -m s -V 4 -q 2 -lowpass 17 -b 128



Релиз от:
 
Не забывайте говорить Спасибо. Не уходите с раздачи!   
Торрент: Зарегистрирован [12 авг 2017, 23:19] Для скачивания .torrent
необходима регистрация
Или скачать с помощью
MediaGet
Статус:
Проверен
 
.torrent скачан: 471 раз
Хэш: 12887db8423ad08eb972eef8e2b09abd249c300a
Размер: 744.57 МБ (780 736 194 байт)
Стать Автором раздачи
 
 
Раздал: 100 ГБ
Скачал: 0 байт
Ратио: Seed.
Сообщения: 92330
Зарегистрирован: 09 апр 2015, 22:31


Вернуться в Зарубежные фильмы 1991-2000

Кто сейчас на конференции

Сейчас эту тему просматривают: нет зарегистрированных пользователей и гости: 1

Ресурс не предоставляет электронные версии произведений, а занимается лишь коллекционированием и каталогизацией ссылок, присылаемых и публикуемых на форуме нашими читателями. Если вы являетесь правообладателем какого-либо представленного материала и не желаете чтобы ссылка на него находилась в нашем каталоге, свяжитесь с нами и мы незамедлительно удалим её. Файлы для обмена на трекере предоставлены пользователями сайта, и администрация не несёт ответственности за их содержание. Просьба не заливать файлы, защищенные авторскими правами, а также файлы нелегального содержания!
cron