Эй вы, ковбои! (Абдулла Карсакбаев) [1974, СССР, детский, мелодрама, DVB] Dub (Ленфильм)

 
 Статистика раздачи 
Размер: 745.34 МБ   |  Зарегистрирован: 10 окт 2017, 22:16   |   .torrent скачан: 0 раз
Сидеров: 2  [ 0 байт/сек ]     Личеров: 1  [ 0 байт/сек ]  
  

Эй вы, ковбои! (Абдулла Карсакбаев) [1974, СССР, детский, мелодрама, DVB] Dub (Ленфильм)

Сообщение Nakazhu » 10 окт 2017, 22:16

Эй вы, ковбои!
Страна: СССР
Студия: Казахфильм
Жанр: детский, мелодрама
Год выпуска: 1974
Продолжительность: 01:03:23
Перевод: Профессиональный (дублированный) - Студия "Ленфильм"
Режиссёр: Абдулла Карсакбаев
В ролях: Чинара Берсугурова, Марат Ботабаев, Бахыт Шарденов, Алдан Байсеитов, Еркин Кенжебаев, Арыстан Шарденов, Канабек Байсеитов, Макиль Куланбаев, Алдаберген Нурбеков, Аскар Сейтказин...
Описание: О школьниках одного из казахских аулов, которые поклялись друг другу выиграть межколхозные спортивные состязания.
Релиз:
Семпл: http://sendfile.su/1368431
Качество:
Формат: AVI
Видео: 640x480 (1.33:1), 25 fps, XviD build 67 ~1521 kbps avg, 0.20 bit/pixel
Аудио: Russian, 48 kHz, AC3 Dolby Digital, 1/0 (C) ch, ~112 kbps
General
Complete name : Эй вы, ковбои! 1974 Казахфильм.avi
Format : AVI
Format/Info : Audio Video Interleave
File size : 745 MiB
Duration : 1 h 3 min
Overall bit rate : 1 644 kb/s
Writing application : VirtualDubMod 1.5.10.2 (build 2542/release)
Writing library : VirtualDubMod build 2542/release
Video
ID : 0
Format : MPEG-4 Visual
Format profile : Advanced Simple@L5
Format settings : BVOP2 / Custom Matrix
Format settings, BVOP : 2
Format settings, QPel : No
Format settings, GMC : No warppoints
Format settings, Matrix : Custom
Codec ID : XVID
Codec ID/Hint : XviD
Duration : 1 h 3 min
Bit rate : 1 522 kb/s
Width : 640 pixels
Height : 480 pixels
Display aspect ratio : 4:3
Frame rate : 25.000 FPS
Color space : YUV
Chroma subsampling : 4:2:0
Bit depth : 8 bits
Scan type : Progressive
Compression mode : Lossy
Bits/(Pixel*Frame) : 0.198
Stream size : 690 MiB (93%)
Writing library : XviD 67
Audio
ID : 1
Format : AC-3
Format/Info : Audio Coding 3
Format settings, Endianness : Big
Codec ID : 2000
Duration : 1 h 3 min
Bit rate mode : Constant
Bit rate : 112 kb/s
Channel(s) : 1 channel
Channel positions : Front: C
Sampling rate : 48.0 kHz
Frame rate : 31.250 FPS (1536 SPF)
Bit depth : 16 bits
Compression mode : Lossy
Stream size : 50.8 MiB (7%)
Alignment : Split accross interleaves
Interleave, duration : 40 ms (1.00 video frame)
Interleave, preload duration : 500 ms
Service kind : Complete Main
 
Не забывайте говорить Спасибо. Не уходите с раздачи!   
Торрент: Зарегистрирован [10 окт 2017, 22:16] Для скачивания .torrent
необходима регистрация
Или скачать с помощью
MediaGet
Статус:
Проверен
 
.torrent скачан: 0 раз
Хэш: a558dad00393337c5e7f9c99fdf89d89dc3e9233
Размер: 745.34 МБ (781 541 376 байт)
Стать Автором раздачи
 
 
Раздал: 0 байт
Скачал: 0 байт
Ратио: Inf.
Сообщения: 378296
Зарегистрирован: 17 апр 2014, 13:57


  • Похожие торренты
    Ответы
    Просмотры
    Последнее сообщение

Вернуться в Детские отечественные фильмы

Кто сейчас на конференции

Сейчас эту тему просматривают: нет зарегистрированных пользователей и гости: 1

Ресурс не предоставляет электронные версии произведений, а занимается лишь коллекционированием и каталогизацией ссылок, присылаемых и публикуемых на форуме нашими читателями. Если вы являетесь правообладателем какого-либо представленного материала и не желаете чтобы ссылка на него находилась в нашем каталоге, свяжитесь с нами и мы незамедлительно удалим её. Файлы для обмена на трекере предоставлены пользователями сайта, и администрация не несёт ответственности за их содержание. Просьба не заливать файлы, защищенные авторскими правами, а также файлы нелегального содержания!
cron