[ATV 3] Люцифер / Lucifer / Сезон 3, Эпизод 1-4 (?) (Нэйтан Хоуп, Лен Уайзман, Майрзи Алмас) [2017, США, фэнтези, драма, WEB-DL HD (1080p)] MVO (Jaskier) + Original + Sub (eng)

 
 Статистика раздачи 
Размер: 7.67 ГБ   |  Зарегистрирован: 25 окт 2017, 20:20   |   .torrent скачан: 0 раз
Сидеров: 1  [ 0 байт/сек ]     Личеров: 0  [ 0 байт/сек ]  
  

[ATV 3] Люцифер / Lucifer / Сезон 3, Эпизод 1-4 (?) (Нэйтан Хоуп, Лен Уайзман, Майрзи Алмас) [2017, США, фэнтези, драма, WEB-DL HD (1080p)] MVO (Jaskier) + Original + Sub (eng)

Сообщение Nakazhu » 25 окт 2017, 20:20

Люцифер / Lucifer

[url=http://www.kinopoisk.ru/film/893621/]
Год выпуска: 2017
Страна: США
Жанр: фэнтези, драма
Продолжительность серии: 42 мин.
Перевод: Многоголосый закадровый перевод
Оригинальная аудиодорожка: Есть
Cубтитры: Английские
Режиссёр: Нэйтан Хоуп, Лен Уайзман, Майрзи Алмас
Сценарий: Том Капинос, Дженн Као, Алекс Кацнельсон
Продюсер: Эрик Холмберг, Шери Элвуд, Нэйтан Хоуп
Оператор: Глен Кинэн, Райан МакМастер
Композитор: Марко Белтрами, Дэннис Смит
Художник: Стивен Джигэн, Крис Аугуст, Скотт Чамблисс
Монтаж: Марк Паттавина, Фредерик Петерсон, Рэй Дэниелс III
В ролях: Том Эллис, Лорен Джерман, Лесли-Энн Брандт, Кевин Алехандро, Рэйчел Харрис, Д.Б. Вудсайд, Локлин Манро, Скарлетт Эстевес
Описание: Заскучавший и несчастный повелитель преисподней, Люцифер Морнингстар оставил свой престол и отправился в современный Лос-Анджелес, где основал ночной клуб «Lux». Очаровательный, харизматичный и дьявольски привлекательный Люцифер наслаждается своим отдыхом — вином, женщинами и музыкой — пока красивая поп-звезда не оказывается убитой на пороге его клуба…
«Люцифер» (англ. Lucifer) — американский телесериал, созданный по мотивам серии комиксов The Sandman Нила Геймана и Майка Кэри, издаваемой издательством Vertigo, импринтом DC Comics. Премьера шоу состоялась 25 января 2016 года.
Качество исходника: WEB-DL 1080p
Качество: WEB-DL
Тип: 1080p
Контейнер: m4v
Видео: 1912 x 1072 at 23.976 fps, MPEG-4 AVC, ~5000 kbps avg
Аудио: Jaskier - Русский - Закадровый перевод: MPEG-4 AAC LC, 2.0, ~ 160 kbps, 48000 Hz / AC-3, 5.1, 384 kbps, 48000 Hz
Аудио: Английский (США): MPEG-4 AAC LC, 2.0, ~ 160 kbps, 48000 Hz / AC-3, 5.1, 384 kbps, 48000 Hz
Субтитры: Английский - SDH для глухих: TX3G
Люцифер, Сезон 3

Lucifer, Season 3
Рекламы нет.
Eng: After a confused Lucifer wakes up in the middle of the desert with his wings back, he recruits the help of Chloe to help figure out what happened to him and why. Upon doing their own research, they come across a crime scene that could be tied to Lucifer’s kidnapping. When the Lancaster Police Department gets involved, newcomer Lieutenant Marcus Pierce fails to make a great impression on everyone with his stern demeanor. The investigation goes awry when Lucifer finds himself in another compromising situation and something much darker is revealed in the Season Three premiere.
Eng: After Lucifer removes his wings yet again, Linda (series star RACHAEL HARRIS) becomes concerned that he is too focused on tracking down the Sinnerman and neglecting his own well-being. Tensions continue to rise between Lucifer and Chloe, but they realize they must put their differences aside to solve a case in which Lucifer takes a sudden interest. Once Detective Pierce’s past is revealed though, everyone realizes that the Sinnerman is much more dangerous than they thought.
Eng: After talking to Lucifer and Linda, Maze realizes that she is looking for more out of life and decides to head to Canada for a tricky case. Chloe however, becomes concerned when she feels that Maze is being deceived by a scheming conman. Upon further investigation, Lucifer and Chloe make a stunning realization when they find that their target may be much closer than they thought.
Eng: When a youth counselor is found murdered, Lucifer and Chloe venture into the world of high-end reform programs to find the killer. Meanwhile, Amenadiel adjusts his lifestyle in an attempt to help Lucifer; and Chloe questions Lt. Pierce’s feelings towards her.
Код:
Код: Выделить всё
Name: They're Back, Aren't They?
Artist: Lucifer
Album Artist: Lucifer
Album: Lucifer, Season 3
Media Kind: 10
HD Video: 2
Genre: Drama
Release Date: 2017-10-02T07:00:00Z
Track #: 1/0
Disk #: 1/1
TV Show: Lucifer
TV Episode #: 1
TV Network: FOX
TV Episode ID: 301
TV Season: 3
Description: After a confused Lucifer wakes up in the middle of the desert with his wings back, he recruits the
Long Description: After a confused Lucifer wakes up in the middle of the desert with his wings back, he recruits the help of Chloe to help figure out what happened to him and why. Upon doing their own research, they come across a crime scene that could be tied to Lucifer’s kidnapping. When the Lancaster Police Department gets involved, newcomer Lieutenant Marcus Pierce fails to make a great impression on everyone with his stern demeanor. The investigation goes awry when Lucifer finds himself in another compromising situation and something much darker is revealed in the Season Three premiere.
Series Description: Entering its third season, the story of the original fallen angel continues.  As Season Two came to a close, Lucifer took care of a little problem called Mom, aka Charlotte (Tricia Helfer). But now he’s facing an even greater challenge – finding out who kidnapped him, and why his angel wings are back.  In addition, Tom Welling (Smallville) joins the cast as Marcus Pierce, an accomplished police lieutenant who is everything Lucifer (Tom Ellis) is not – strategic, reserved and well-respected. But perhaps even more annoying are all the things they have in common. Both men are charming, charismatic and handsome as hell. So when Pierce starts developing a connection with Decker (Lauren German), Lucifer's devilish traits are inflamed.
Content Rating: 0
Copyright: LUCIFER and all related characters and elements are trademarks of and © DC Comics. © 2017 Warner Bros. Entertainment Inc.
content ID: 1291951407
artist ID: 1066335361
playlist ID: 1271841240
genre ID: 4001
XID: WarnerBrosEnt:vendor_id:LUCIFER_S3_301_US
iTunes Country: 143441
Sort Name: They're Back, Aren't They?
Sort Artist: Lucifer
Sort Album: Lucifer, Season 3

Код:
Код: Выделить всё
Общее
Полное имя                               : 01 They're Back, Aren't They_ (1080p HD).m4v
Формат                                   : MPEG-4
Идентификатор кодека                     : M4V  (isom/avc1/M4A /M4V /mp42)
Размер файла                             : 1,92 Гбайт
Продолжительность                        : 43 м. 59 с.
Режим общего битрейта                    : Переменный
Общий поток                              : 6233 Кбит/сек
Коллекция                                : Lucifer
Сезон                                    : 3
Альбом                                   : Lucifer, Season 3
Альбом/Сортировать по                    : Lucifer, Season 3
Альбом/Исполнитель                       : Lucifer
Часть                                    : 1
Часть/Положение                          : 1
Часть/Всего                              : 1
Трек                                     : They're Back, Aren't They?
Трек/Положение                           : 1
Исполнитель                              : Lucifer
Исполнитель/Сортировать по               : Lucifer
Жанр                                     : Drama
Тип содержимого                          : TV Show
Описание                                 : After a confused Lucifer wakes up in the middle of the desert with his wings back, he recruits the / Entering its third season, the story of the original fallen angel continues.  As Season Two came to a close, Lucifer took care of a little problem called Mom, aka Charlotte (Tricia Helfer). But now he’s facing an even greater challenge – finding out who kidnapped him, and why his angel wings are back.  In addition, Tom Welling (Smallville) joins the cast as Marcus Pierce, an accomplished police lieutenant who is everything Lucifer (Tom Ellis) is not – strategic, reserved and well-respected. But perhaps even more annoying are all the things they have in common. Both men are charming, charismatic and handsome as hell. So when Pierce starts developing a connection with Decker (Lauren German), Lucifer's devilish traits are inflamed.
Дата записи                              : UTC 2017-10-02 07:00:00
Дата кодирования                         : UTC 2017-10-02 07:00:00
Дата пометки                             : UTC 2017-10-02 07:00:00
Правообладатель                          : LUCIFER and all related characters and elements are trademarks of and © DC Comics. © 2017 Warner Bros. Entertainment Inc.
Обложка                                  : Yes
Рейтинг                                  : None
AppleStoreCatalogID                      : 1291951407
AlbumTitleID                             : 1066335361
PlayListID                               : 1271841240
GenreID                                  : 4001
Part_ID                                  : 301
Title/Sort                               : They're Back, Aren't They?
ContentRating                            : us-tv||0|
LongDescription                          : After a confused Lucifer wakes up in the middle of the desert with his wings back, he recruits the help of Chloe to help figure out what happened to him and why. Upon doing their own research, they come across a crime scene that could be tied to Lucifer’s kidnapping. When the Lancaster Police Department gets involved, newcomer Lieutenant Marcus Pierce fails to make a great impression on everyone with his stern demeanor. The investigation goes awry when Lucifer finds himself in another compromising situation and something much darker is revealed in the Season Three premiere.
TVNetworkName                            : FOX
Vendor                                   : WarnerBrosEnt:vendor_id:LUCIFER_S3_301_US
Flavour                                  : 18:1080p
AppleStoreCountry                        : United States
Видео
Идентификатор                            : 1
Формат                                   : AVC
Формат/Информация                        : Advanced Video Codec
Профиль формата                          : High@L4
Параметр CABAC формата                   : Да
Параметр ReFrames формата                : 4 кадра
Идентификатор кодека                     : avc1
Идентификатор кодека/Информация          : Advanced Video Coding
Продолжительность                        : 43 м. 59 с.
Битрейт                                  : 5194 Кбит/сек
Максимальный битрейт                     : 13,1 Мбит/сек
Ширина                                   : 1912 пикселей
Высота                                   : 1072 пикселя
Соотношение сторон                       : 16:9
Режим частоты кадров                     : Постоянный
Частота кадров                           : 23,976 (24000/1001) кадра/сек
Цветовое пространство                    : YUV
Субдискретизация насыщенности            : 4:2:0
Битовая глубина                          : 8 бит
Тип развёртки                            : Прогрессивная
Бит/(Пиксели*Кадры)                      : 0.106
Размер потока                            : 1,60 Гбайт (83%)
Заголовок                                : Core Media Video
Язык                                     : English
Дата кодирования                         : UTC 2017-10-02 07:00:00
Дата пометки                             : UTC 2017-10-02 07:00:00
Color range                              : Limited
Основные цвета                           : BT.709
Характеристики трансфера                 : BT.709
Коэффициенты матрицы                     : BT.709
Аудио #1
Идентификатор                            : 2
Формат                                   : AAC
Формат/Информация                        : Advanced Audio Codec
Профиль формата                          : LC
Идентификатор кодека                     : 40
Продолжительность                        : 43 м. 59 с.
Вид битрейта                             : Переменный
Битрейт                                  : 132 Кбит/сек
Максимальный битрейт                     : 205 Кбит/сек
Каналы                                   : 2 канала
Расположение каналов                     : Front: L R
Частота                                  : 48,0 КГц
Частота кадров                           : 46,875 кадров/сек (1024 SPF)
Метод сжатия                             : С потерями
Размер потока                            : 40,9 Мбайт (2%)
Заголовок                                : Core Media Audio
Язык                                     : Russian
Default                                  : Да
Alternate group                          : 1
Дата кодирования                         : UTC 2017-10-04 21:00:00
Дата пометки                             : UTC 2017-10-04 21:00:00
Fallback From                            : 3
tagc                                     : public.translation.voice-over
Аудио #2
Идентификатор                            : 3
Формат                                   : AC-3
Формат/Информация                        : Audio Coding 3
Параметр Endianness формата              : Big
Идентификатор кодека                     : ac-3
Продолжительность                        : 43 м. 59 с.
Вид битрейта                             : Постоянный
Битрейт                                  : 384 Кбит/сек
Максимальный битрейт                     : 406 Кбит/сек
Каналы                                   : 6 каналов
Расположение каналов                     : Front: L C R, Side: L R, LFE
Частота                                  : 48,0 КГц
Частота кадров                           : 31,250 кадров/сек (1536 SPF)
Битовая глубина                          : 16 бит
Метод сжатия                             : С потерями
Размер потока                            : 121 Мбайт (6%)
Заголовок                                : Core Media Audio
Язык                                     : Russian
Service kind                             : Complete Main
Default                                  : Inherited From: 2
Alternate group                          : 1
Дата кодирования                         : UTC 2017-10-04 21:00:00
Дата пометки                             : UTC 2017-10-04 21:00:00
Fallback To                              : 2
tagc                                     : public.translation.voice-over
Аудио #3
Идентификатор                            : 4
Формат                                   : AAC
Формат/Информация                        : Advanced Audio Codec
Профиль формата                          : LC
Идентификатор кодека                     : 40
Продолжительность                        : 43 м. 59 с.
Вид битрейта                             : Переменный
Битрейт                                  : 132 Кбит/сек
Максимальный битрейт                     : 198 Кбит/сек
Каналы                                   : 2 канала
Расположение каналов                     : Front: L R
Частота                                  : 48,0 КГц
Частота кадров                           : 46,875 кадров/сек (1024 SPF)
Метод сжатия                             : С потерями
Размер потока                            : 42,4 Мбайт (2%)
Заголовок                                : Core Media Audio
Язык                                     : English
Default                                  : Нет
Alternate group                          : 1
Дата кодирования                         : UTC 2017-10-02 07:00:00
Дата пометки                             : UTC 2017-10-02 07:00:00
Fallback From                            : 5
Аудио #4
Идентификатор                            : 5
Формат                                   : AC-3
Формат/Информация                        : Audio Coding 3
Параметр Endianness формата              : Big
Идентификатор кодека                     : ac-3
Продолжительность                        : 43 м. 59 с.
Вид битрейта                             : Постоянный
Битрейт                                  : 384 Кбит/сек
Максимальный битрейт                     : 406 Кбит/сек
Каналы                                   : 6 каналов
Расположение каналов                     : Front: L C R, Side: L R, LFE
Частота                                  : 48,0 КГц
Частота кадров                           : 31,250 кадров/сек (1536 SPF)
Битовая глубина                          : 16 бит
Метод сжатия                             : С потерями
Размер потока                            : 121 Мбайт (6%)
Заголовок                                : Core Media Audio
Язык                                     : English
Service kind                             : Complete Main
Default                                  : Нет
Alternate group                          : 1
Дата кодирования                         : UTC 2017-10-02 07:00:00
Дата пометки                             : UTC 2017-10-02 07:00:00
Fallback To                              : 4
Текст
Идентификатор                            : 6
Формат                                   : Timed Text
Режим смешивания                         : sbtl
Идентификатор кодека                     : tx3g
Продолжительность                        : 43 м. 9 с.
Вид битрейта                             : Переменный
Битрейт                                  : 106 бит/сек
Размер потока                            : 33,4 Кбайт (0%)
Заголовок                                : Core Media Subtitle
Язык                                     : English
Default                                  : Нет
Forced                                   : Нет
Alternate group                          : 2
Дата кодирования                         : UTC 2017-10-02 07:00:00
Дата пометки                             : UTC 2017-10-02 07:00:00




Релиз подготовлен для просмотра на Apple TV, iPad, iPhone, iPod Touch.
Для просмотра данного релиза на компьютере с ОС Windows рекомендуется использовать VLC media player
 
Не забывайте говорить Спасибо. Не уходите с раздачи!   
Торрент: Зарегистрирован [25 окт 2017, 20:20] Для скачивания .torrent
необходима регистрация
Или скачать с помощью
MediaGet
Статус:
Проверен
 
.torrent скачан: 0 раз
Хэш: 268658f447916413c5a83a31a3a1ffc1fc561db7
Размер: 7.67 ГБ (8 235 400 631 байт)
Стать Автором раздачи
 
 
Раздал: 0 байт
Скачал: 0 байт
Ратио: Inf.
Сообщения: 380001
Зарегистрирован: 17 апр 2014, 13:57


Вернуться в Сериалы HD для Apple TV

Кто сейчас на конференции

Сейчас эту тему просматривают: нет зарегистрированных пользователей и гости: 1

Ресурс не предоставляет электронные версии произведений, а занимается лишь коллекционированием и каталогизацией ссылок, присылаемых и публикуемых на форуме нашими читателями. Если вы являетесь правообладателем какого-либо представленного материала и не желаете чтобы ссылка на него находилась в нашем каталоге, свяжитесь с нами и мы незамедлительно удалим её. Файлы для обмена на трекере предоставлены пользователями сайта, и администрация не несёт ответственности за их содержание. Просьба не заливать файлы, защищенные авторскими правами, а также файлы нелегального содержания!
cron