Оболганный Государь (Сергий Алиев) [19.10.2017, документальный, WEBRip]

 
 Статистика раздачи 
Размер: 1.82 ГБ   |  Зарегистрирован: 14 ноя 2017, 06:53   |   .torrent скачан: 0 раз
Сидеров: 6  [ 0 байт/сек ]     Личеров: 2  [ 0 байт/сек ]  
  

Оболганный Государь (Сергий Алиев) [19.10.2017, документальный, WEBRip]

Сообщение Nakazhu » 14 ноя 2017, 06:53

Оболганный Государь
Дата/Год выпуска: 19.10.2017
Страна: Россия
Жанр: документальный
Продолжительность: 01:44:14
Перевод: Не требуется
Режиссер: Сергий Алиев
Описание: Исторический документальный фильм "Оболганный государь" режиссёра Сергия Алиева, который носил рабочее название "Ложь Матильды", посвящен последнему Росийскому императору Николаю II. В фильме приняли участие историки Владимир Лавров и Алексей Соловьев, путешественник Федор Конюхов, народный артист России Николай Бурляев, балерина Ильзе Лиепа, космонавт Сергей Рыжиков, бывший архиепископ Екатеринбургский и Верхотурский Викентий и глава Союза ММА России Федор Емельяненко. Авторы «Оболганного государя» предлагали показать этот фильм на федеральных каналах, однако получили отказ. «Мы обращались к „России“, „России-24“. Но на этих каналах — одно хамство. Нас называли там „царебожники“! „Первому каналу“ вообще это не интересно. Я вот сейчас узнал, что Алексей Учитель готовит телевизионную версию своей „Матильды“. То есть если православные в кино и не пойдут, то по Первому каналу его все равно всем покажут в четырех сериях!» — возмущается Сергий Алиев. Он уверен, что «федералы» отказались показывать его документальную ленту, потому что работают «по заказу — нужна чернуха, никто не будет позитивно рассматривать личность святого царя»...
Сэмпл: https://yadi.sk/i/qsXy06y33Pfun4
качество: WEBRip
формат: AVI
Видео: XviD, 2300 Кбит/сек, 720 x 400 (1.778), 29.970 fps
Аудио: MP3, 192 Кбит/сек, 2 канала, 44,1 КГц
Полное имя : Док.Фильм Оболганный Государь.avi
Формат : AVI
Формат/Информация : Audio Video Interleave
Профиль формата : OpenDML
Размер файла : 1,82 Гбайт
Продолжительность : 1 ч. 44 м.
Общий поток : 2506 Кбит/сек
Программа кодирования : Lavf57.71.100
Видео
Идентификатор : 0
Формат : MPEG-4 Visual
Профиль формата : Advanced Simple@L5
Настройки формата : BVOP1
Параметр BVOP формата : 1
Параметр QPel формата : Нет
Параметр GMC формата : Без точки перехода
Параметр матрицы формата : Default (H.263)
Идентификатор кодека : XVID
Идентификатор кодека/Подсказка : XviD
Продолжительность : 1 ч. 44 м.
Битрейт : 2300 Кбит/сек
Ширина : 720 пикселей
Высота : 400 пикселей
Соотношение сторон : 16:9
Частота кадров : 29,970 (30000/1001) кадров/сек
Цветовое пространство : YUV
Субдискретизация насыщенности : 4:2:0
Битовая глубина : 8 бит
Тип развёртки : Прогрессивная
Тип развёртки в оригинале : Чересстрочная
Порядок развёртки в оригинале : Нижнее поле первое
Метод сжатия : С потерями
Бит/(Пиксели*Кадры) : 0.266
Размер потока : 1,67 Гбайт (92%)
Заголовок : ISO Media file produced by Google Inc. Created on: 10/20/2017.
Библиотека кодирования : XviD 67
Аудио
Идентификатор : 1
Формат : MPEG Audio
Версия формата : Version 1
Профиль формата : Layer 3
Настройки формата : Joint stereo
Идентификатор кодека : 55
Идентификатор кодека/Подсказка : MP3
Продолжительность : 1 ч. 44 м.
Вид битрейта : Постоянный
Битрейт : 192 Кбит/сек
Каналы : 2 канала
Частота : 44,1 КГц
Метод сжатия : С потерями
Размер потока : 143 Мбайт (8%)
Выравнивание : Соединение по промежуткам
Продолжительность промежутка : 26 мс. (0,78 видеокадр)
Заголовок : ISO Media file produced by Google Inc. Created on: 10/20/2017.
Библиотека кодирования : LAME3.99.5
 
Не забывайте говорить Спасибо. Не уходите с раздачи!   
Торрент: Зарегистрирован [14 ноя 2017, 06:53] Для скачивания .torrent
необходима регистрация
Или скачать с помощью
MediaGet
Статус:
Проверен
 
.torrent скачан: 0 раз
Хэш: d8bd13c8fddd1033c5b6b67355e27a8ec46a7ed9
Размер: 1.82 ГБ (1 959 011 366 байт)
Стать Автором раздачи
 
 
Раздал: 0 байт
Скачал: 0 байт
Ратио: Inf.
Сообщения: 343251
Зарегистрирован: 17 апр 2014, 13:57


  • Похожие торренты
    Ответы
    Просмотры
    Последнее сообщение

Вернуться в Вера и религия (видео)

Кто сейчас на конференции

Сейчас эту тему просматривают: нет зарегистрированных пользователей и гости: 1

Ресурс не предоставляет электронные версии произведений, а занимается лишь коллекционированием и каталогизацией ссылок, присылаемых и публикуемых на форуме нашими читателями. Если вы являетесь правообладателем какого-либо представленного материала и не желаете чтобы ссылка на него находилась в нашем каталоге, свяжитесь с нами и мы незамедлительно удалим её. Файлы для обмена на трекере предоставлены пользователями сайта, и администрация не несёт ответственности за их содержание. Просьба не заливать файлы, защищенные авторскими правами, а также файлы нелегального содержания!
cron