Я кричал против жизни или за неё / Je criais contre la vie, ou pour elle (Вержин Кетон / Vergine Keaton) [2009, Франция, драма, анимация, короткий метр, DVB] VO (Студия Акцент) + Original

 
 Статистика раздачи 
Размер: 265.92 МБ   |  Зарегистрирован: 14 ноя 2017, 19:48   |   .torrent скачан: 0 раз
Сидеров: 5  [ 0 байт/сек ]     Личеров: 1  [ 0 байт/сек ]  
  

Я кричал против жизни или за неё / Je criais contre la vie, ou pour elle (Вержин Кетон / Vergine Keaton) [2009, Франция, драма, анимация, короткий метр, DVB] VO (Студия Акцент) + Original

Сообщение Nakazhu » 14 ноя 2017, 19:48

Я кричал против жизни или за неё
Je criais contre la vie, ou pour elle
#77Страна: Франция
Жанр: драма, анимация, короткий метр
Год выпуска: 2009
Продолжительность: 00:08:58
Перевод: Студийный (одноголосый закадровый) Студия "Акцент" по заказу Kino Polska
Субтитры: нет
Оригинальная аудиодорожка: музыкальное сопровождение
Режиссер: Вержин Кетон / Vergine Keaton
Роли озвучивают: нет
Описание: Стадо оленей дает отпор своре охотничьих собак, пробуждая дремлющие силы природы...
Доп. информация: Intelsat 15 (85.0°E) Filmbox Arthouse DVB-S
Награды: номинация на приз "Кристалл" за короткометражный фильм Annecy International Animated Film Festival 2009; номинация на Гран-при Hiroshima International Animation Festival 2010; премия SACEM за лучшую оригинальную музыку Clermont-Ferrand International Short Film Festival 2010; Диплом за заслуги в международном конкурсе Tampere International Short Film Festival 2011; приз за лучший неигровой фильм Holland Animation Film festival 2011; приз за лучший саундтрек Athens AnimFest 2011; др. награды. Участник программы ACID - Cannes Film Festival 2010.
Качество видео: DVB
Формат видео: MKV
Видео: MPEG Video 2, 720x576@1024x576 (16:9), 25 fps, ~3800 kbps avg, 0.367 bit/pixel
Аудио 1: MPEG Audio 2, 2 ch, 48 kHz, 128 kbps - русский
Аудио 2: MPEG Audio 2, 2 ch, 48 kHz, 128 kbps - музыкальное сопровождение
Код: Выделить всё
General
Unique ID                                : 241013387603223131578755983728312750443 (0xB5517D71D74A6581BE16D23960B6916B)
Complete name                            : [apreder]MM_Je_criais_contre_la_vie_ou_pour_elle(2009)DVB.mkv
Format                                   : Matroska
Format version                           : Version 2
File size                                : 266 MiB
Duration                                 : 8 min 58 s
Overall bit rate mode                    : Variable
Overall bit rate                         : 4 139 kb/s
Movie name                               : Je criais contre la vie, ou pour elle
Released date                            : 2009-01-01
Encoded date                             : UTC 2017-11-14 16:24:14
Writing application                      : mkvmerge v17.0.0 ('Be Ur Friend') 64-bit
Writing library                          : libebml v1.3.5 + libmatroska v1.4.8
Cover                                    : Yes
Attachments                              : cover.jpg / small_cover.jpg
DIRECTOR                                 : Vergine Keaton
GENRE                                    : Animation, Short
IMDB                                     : tt1599319
KEYWORDS                                 : rutracker.org
LAW_RATING                               : 16+
Video
ID                                       : 1
Format                                   : MPEG Video
Format version                           : Version 2
Format profile                           : Main@Main
Format settings                          : CustomMatrix / BVOP
Format settings, BVOP                    : Yes
Format settings, Matrix                  : Custom
Format settings, GOP                     : M=4, N=12
Format settings, picture structure       : Frame
Codec ID                                 : V_MPEG2
Codec ID/Info                            : MPEG 1 or 2 Video
Duration                                 : 8 min 58 s
Bit rate mode                            : Variable
Bit rate                                 : 3 800 kb/s
Maximum bit rate                         : 10 000 kb/s
Width                                    : 720 pixels
Height                                   : 576 pixels
Display aspect ratio                     : 16:9
Frame rate mode                          : Constant
Frame rate                               : 25.000 FPS
Standard                                 : PAL
Color space                              : YUV
Chroma subsampling                       : 4:2:0
Bit depth                                : 8 bits
Scan type                                : Interlaced
Scan order                               : Top Field First
Compression mode                         : Lossy
Bits/(Pixel*Frame)                       : 0.367
Time code of first frame                 : 00:00:00:00
Time code source                         : Group of pictures header
GOP, Open/Closed                         : Open
Stream size                              : 244 MiB (92%)
Default                                  : Yes
Forced                                   : No
Audio #1
ID                                       : 2
Format                                   : MPEG Audio
Format version                           : Version 1
Format profile                           : Layer 2
Codec ID                                 : A_MPEG/L2
Codec ID/Hint                            : MP2
Duration                                 : 8 min 58 s
Bit rate mode                            : Constant
Bit rate                                 : 128 kb/s
Channel(s)                               : 2 channels
Sampling rate                            : 48.0 kHz
Compression mode                         : Lossy
Stream size                              : 8.22 MiB (3%)
Language                                 : Russian
Default                                  : Yes
Forced                                   : No
Audio #2
ID                                       : 3
Format                                   : MPEG Audio
Format version                           : Version 1
Format profile                           : Layer 2
Codec ID                                 : A_MPEG/L2
Codec ID/Hint                            : MP2
Duration                                 : 8 min 58 s
Bit rate mode                            : Constant
Bit rate                                 : 128 kb/s
Channel(s)                               : 2 channels
Sampling rate                            : 48.0 kHz
Compression mode                         : Lossy
Stream size                              : 8.22 MiB (3%)
Language                                 : French
Default                                  : No
Forced                                   : No

[3'952]
 
Не забывайте говорить Спасибо. Не уходите с раздачи!   
Торрент: Зарегистрирован [14 ноя 2017, 19:48] Для скачивания .torrent
необходима регистрация
Или скачать с помощью
MediaGet
Статус:
Проверен
 
.torrent скачан: 0 раз
Хэш: c0d3ff54c8c465940150a61cf67d415c34615c9d
Размер: 265.92 МБ (278 833 145 байт)
Стать Автором раздачи
 
 
Раздал: 0 байт
Скачал: 0 байт
Ратио: Inf.
Сообщения: 343246
Зарегистрирован: 17 апр 2014, 13:57


  • Похожие торренты
    Ответы
    Просмотры
    Последнее сообщение

Вернуться в Арт-хаус и авторское кино

Кто сейчас на конференции

Сейчас эту тему просматривают: нет зарегистрированных пользователей и гости: 1

Ресурс не предоставляет электронные версии произведений, а занимается лишь коллекционированием и каталогизацией ссылок, присылаемых и публикуемых на форуме нашими читателями. Если вы являетесь правообладателем какого-либо представленного материала и не желаете чтобы ссылка на него находилась в нашем каталоге, свяжитесь с нами и мы незамедлительно удалим её. Файлы для обмена на трекере предоставлены пользователями сайта, и администрация не несёт ответственности за их содержание. Просьба не заливать файлы, защищенные авторскими правами, а также файлы нелегального содержания!
cron