Коррупция / Across the Killing Bay (Эммет Олстон / Emmett Alston) [1990, США, Боевик, триллер, детектив, VHSRip] AVO (Александр Кашкин)

 
 Статистика раздачи 
Размер: 1.37 ГБ   |  Зарегистрирован: 14 ноя 2017, 20:51   |   .torrent скачан: 0 раз
Сидеров: 2  [ 0 байт/сек ]     Личеров: 1  [ 0 байт/сек ]  
  

Коррупция / Across the Killing Bay (Эммет Олстон / Emmett Alston) [1990, США, Боевик, триллер, детектив, VHSRip] AVO (Александр Кашкин)

Сообщение Nakazhu » 14 ноя 2017, 20:51

Коррупция / Across the Killing Bay
Страна: США
Жанр: Боевик, триллер, детектив
Год выпуска: 1990
Продолжительность: 01:29:34
Перевод: Авторский (одноголосый закадровый) Александр Кашкин ???
Субтитры: нет
Режиссер: Эммет Олстон / Emmett Alston
В ролях: Phil Cheney
Alex Bennett
Dido Dela Paz
Bon Vibar
Marissa Bunag
Paul Holme
Описание: Действие фильма происходит в городе Манила, куда из Интерпола прибывают два агента: Хастингс и его помощник Гранд Купер. Именно здесь им придется лицом к лицу столкнутся с наркомафией, чтобы пресечь наркотрафик в Европу и Западные страны.
Доп. информация: За оцифровку и предоставление для релиза на рутрекере большое спасибо RITONIS
Релиз
Сэмпл: https://yadi.sk/i/Qnuauq243PhNYW
Качество видео: VHSRip
Формат видео: AVI
Видео: 704x528 (1.33:1), 25 fps, XviD build 73 ~1981 kbps avg, 0.21 bit/pixel
Аудио: 48 kHz, AC3 Dolby Digital, 2/0 (L,R) ch, ~192 kbps
Код: Выделить всё
Коррупция - Across the Killing Bay (by RITONIS).avi
Format                      : AVI
Format/Info                 : Audio Video Interleave
File size                   : 1.37 GiB
Duration                    : 1 h 29 min
Overall bit rate            : 2 183 kb/s
Movie name                  : Коррупция - Across the Killing Bay (by RITONIS)
Director                    : by RITONS
Writing application         : VirtualDubMod 1.5.10.3 | www.virtualdub-fr.org || (build 2550/release)
Copyright                   : Edich2
Comment                     : RuTracker.org
Video
ID                          : 0
Format                      : MPEG-4 Visual
Format profile              : Advanced Simple@L5
Format settings, BVOP       : 2
Format settings, QPel       : No
Format settings, GMC        : No warppoints
Format settings, Matrix     : Custom
Codec ID                    : XVID
Codec ID/Hint               : XviD
Duration                    : 1 h 29 min
Bit rate                    : 1 981 kb/s
Width                       : 704 pixels
Height                      : 528 pixels
Display aspect ratio        : 4:3
Frame rate                  : 25.000 FPS
Color space                 : YUV
Chroma subsampling          : 4:2:0
Bit depth                   : 8 bits
Scan type                   : Progressive
Compression mode            : Lossy
Bits/(Pixel*Frame)          : 0.213
Stream size                 : 1.24 GiB (91%)
Writing library             : XviD 73
Audio
ID                          : 1
Format                      : AC-3
Format/Info                 : Audio Coding 3
Format settings, Endianness : Big
Codec ID                    : 2000
Duration                    : 1 h 29 min
Bit rate mode               : Constant
Bit rate                    : 192 kb/s
Channel(s)                  : 2 channels
Channel positions           : Front: L R
Sampling rate               : 48.0 kHz
Frame rate                  : 31.250 FPS (1536 spf)
Bit depth                   : 16 bits
Compression mode            : Lossy
Stream size                 : 123 MiB (9%)
Alignment                   : Split accross interleaves
Interleave, duration        : 40  ms (1.00 video frame)
Interleave, preload duratio : 500  ms
Service kind                : Complete Main

 
Не забывайте говорить Спасибо. Не уходите с раздачи!   
Торрент: Зарегистрирован [14 ноя 2017, 20:51] Для скачивания .torrent
необходима регистрация
Или скачать с помощью
MediaGet
Статус:
Проверен
 
.torrent скачан: 0 раз
Хэш: c2ec55e760d4480a84b3355e7804b486b94ee563
Размер: 1.37 ГБ (1 466 671 104 байт)
Стать Автором раздачи
 
 
Раздал: 0 байт
Скачал: 0 байт
Ратио: Inf.
Сообщения: 343251
Зарегистрирован: 17 апр 2014, 13:57


  • Похожие торренты
    Ответы
    Просмотры
    Последнее сообщение

Вернуться в Зарубежное кино

Кто сейчас на конференции

Сейчас эту тему просматривают: нет зарегистрированных пользователей и гости: 1

Ресурс не предоставляет электронные версии произведений, а занимается лишь коллекционированием и каталогизацией ссылок, присылаемых и публикуемых на форуме нашими читателями. Если вы являетесь правообладателем какого-либо представленного материала и не желаете чтобы ссылка на него находилась в нашем каталоге, свяжитесь с нами и мы незамедлительно удалим её. Файлы для обмена на трекере предоставлены пользователями сайта, и администрация не несёт ответственности за их содержание. Просьба не заливать файлы, защищенные авторскими правами, а также файлы нелегального содержания!
cron