Человек из Лондона / A londoni férfi / The Man from London (Béla Tarr / Бела Тарр) [2007, Венгрия, Германия, Франция, драма, криминал, детектив, DVDRip] VO

 
 Статистика раздачи 
Размер: 1.45 ГБ   |  Зарегистрирован: 06 дек 2017, 20:33   |   .torrent скачан: 0 раз
Сидеров: 1  [ 0 байт/сек ]     Личеров: 0  [ 0 байт/сек ]  
  

Человек из Лондона / A londoni férfi / The Man from London (Béla Tarr / Бела Тарр) [2007, Венгрия, Германия, Франция, драма, криминал, детектив, DVDRip] VO

Сообщение Nakazhu » 06 дек 2017, 20:33

Человек из Лондона / A londoni férfi / The Man from London
Страна: Венгрия, Германия, Франция
Жанр: драма, криминал, детектив, экранизация
Год выпуска: 2007
Продолжительность: 02:13:26
Перевод: Одноголосый закадровый (неизвестный)
Субтитры: нет
Оригинальная аудиодорожка: нет
Режиссер: Béla Tarr / Бела Тарр
В ролях: Аги Сиртеш, Мирослав Кробот, Дьюла Пауэр, Тильда Суинтон, Эрика Бок, Янош Держи, Кати Лазар, Иштван Ленарт, Гюла Пауер, Ласло Лугоши, Альфред Жараи, Фолькер Шпенглер, Михай Кормош, Эва Альмашши Альберт, Агнеш Камонди, Жак Пиллиппи
Описание: По одноименному роману бельгийского писателя Жоржа Сименона «L'Homme de Londres» (1933). Маллойн (Мирослав Кробот), стрелочник железнодорожной станции в порту, живёт в ветхой квартире со своей женой Камелией (Тильда Суинтон) и дочерью Генриеттой (Эрика Бок). Однажды во время ночной смены он становится свидетелем происходящей на причале драки. Из окна своей башни Маллойн видит, как один из участников падает в воду вместе с портфелем, а второй спешит скрыться. Маллойн подбирает портфель, в котором находится крупная денежная сумма. Маллойн прячет деньги и никому не рассказывает о них. На следующий день он замечает следящего за ним Брауна (Янош Держи,). Вечером Браун безуспешно ищет портфель около места вчерашней драки и замечает Маллойна в окне башни...
Доп. информация: Собственный рип.
Сэмпл: http://multi-up.com/1178866
Качество видео: DVDRip
Исходник
Формат видео: AVI
Видео: XviD, 656x400 (1.64:1), 25.000 fps, 1362 kbps avg
Аудио: Russian AC3 Dolby Digital, 48 kHz, 2/0 (L,R) ch, 192.00 kbps avg
Код: Выделить всё
General
Complete name               : I:\A londoni ferfi (2007)\Человек.из.Лондона.2007.DVDRip.VO.avi
Format                      : AVI
Format/Info                 : Audio Video Interleave
File size                   : 1.45 GiB
Duration                    : 2 h 13 min
Overall bit rate            : 1 557 kb/s
Writing application         : VirtualDubModRus 1.5.10.2 (build 2542/release)
Writing library             : VirtualDubMod build 2542/release
Video
ID                          : 0
Format                      : MPEG-4 Visual
Format profile              : Advanced Simple@L5
Format settings, BVOP       : 1
Format settings, QPel       : No
Format settings, GMC        : No warppoints
Format settings, Matrix     : Custom
Codec ID                    : XVID
Codec ID/Hint               : XviD
Duration                    : 2 h 13 min
Bit rate                    : 1 362 kb/s
Width                       : 656 pixels
Height                      : 400 pixels
Display aspect ratio        : 16:10
Frame rate                  : 25.000 FPS
Color space                 : YUV
Chroma subsampling          : 4:2:0
Bit depth                   : 8 bits
Scan type                   : Progressive
Compression mode            : Lossy
Bits/(Pixel*Frame)          : 0.208
Stream size                 : 1.27 GiB (87%)
Writing library             : XviD 1.2.1 (UTC 2008-12-04)
Audio
ID                          : 1
Format                      : AC-3
Format/Info                 : Audio Coding 3
Format settings, Endianness : Big
Codec ID                    : 2000
Duration                    : 2 h 8 min
Bit rate mode               : Constant
Bit rate                    : 192 kb/s
Channel(s)                  : 2 channels
Channel positions           : Front: L R
Sampling rate               : 48.0 kHz
Frame rate                  : 31.250 FPS (1536 SPF)
Bit depth                   : 16 bits
Compression mode            : Lossy
Stream size                 : 177 MiB (12%)
Alignment                   : Split accross interleaves
Interleave, duration        : 41  ms (1.04 video frame)
Interleave, preload duratio : 500  ms
Service kind                : Complete Main
 
Не забывайте говорить Спасибо. Не уходите с раздачи!   
Торрент: Зарегистрирован [06 дек 2017, 20:33] Для скачивания .torrent
необходима регистрация
Или скачать с помощью
MediaGet
Статус:
Проверен
 
.torrent скачан: 0 раз
Хэш: 7270b2840358c550312acf862e3cc9bef1ff0554
Размер: 1.45 ГБ (1 558 239 232 байт)
Стать Автором раздачи
 
 
Раздал: 0 байт
Скачал: 0 байт
Ратио: Inf.
Сообщения: 358174
Зарегистрирован: 17 апр 2014, 13:57


  • Похожие торренты
    Ответы
    Просмотры
    Последнее сообщение

Вернуться в Арт-хаус и авторское кино

Кто сейчас на конференции

Сейчас эту тему просматривают: нет зарегистрированных пользователей и гости: 1

Ресурс не предоставляет электронные версии произведений, а занимается лишь коллекционированием и каталогизацией ссылок, присылаемых и публикуемых на форуме нашими читателями. Если вы являетесь правообладателем какого-либо представленного материала и не желаете чтобы ссылка на него находилась в нашем каталоге, свяжитесь с нами и мы незамедлительно удалим её. Файлы для обмена на трекере предоставлены пользователями сайта, и администрация не несёт ответственности за их содержание. Просьба не заливать файлы, защищенные авторскими правами, а также файлы нелегального содержания!
cron