[ATV3] мама! / mother! (Даррен Аронофски / Darren Aronofsky ) [2017, США, Ужасы, драма, детектив, WEB-DL, HD (1080p)] DUB + Original + sub (rus, ukr, eng)

 
 Статистика раздачи 
Размер: 4.95 ГБ   |  Зарегистрирован: 07 дек 2017, 12:34   |   .torrent скачан: 0 раз
Сидеров: 1  [ 0 байт/сек ]     Личеров: 0  [ 0 байт/сек ]  
  

[ATV3] мама! / mother! (Даррен Аронофски / Darren Aronofsky ) [2017, США, Ужасы, драма, детектив, WEB-DL, HD (1080p)] DUB + Original + sub (rus, ukr, eng)

Сообщение Nakazhu » 07 дек 2017, 12:34

мама! / mother!

«seeing is believing»
7.482 / 10 7.00 / 10
Год выпуска: 2017
Страна: США
Жанр: Ужасы, драма, детектив
Продолжительность: 02:01:28
Перевод: Дублированный (iTunes)
Оригинальная аудиодорожка: Есть
Cубтитры: Русские форсированные, Украинские форсированные, Русские, Украинские, Английские
Режиссёр: Даррен Аронофски
Сценарий: Даррен Аронофски
Продюсер: Даррен Аронофски, Скотт Франклин, Дилан Голден
Оператор: Мэттью Либатик
Художник: Филип Мессина, Изабель Гюэ, Дебора Дженсен
Монтаж: Эндрю Вайсблум
В ролях: Дженнифер Лоуренс, Хавьер Бардем, Эд Харрис, Мишель Пфайффер, Донал Глисон, Брин Глисон, Кристен Уиг, Йован Адепо, Стивен МакХэтти, Аманда Чиу
Бюджет: $30 000 000
Сборы в США: $17 800 004
Сборы в мире: + $26 304 534 = $44 104 538
Сборы в России: $2 545 323
Мировая премьера: 5 сентября 2017
Премьера (РФ): 14 сентября 2017, «Централ Партнершип»
Описание: Отношения молодой пары оказываются под угрозой, когда, нарушая безмятежное существование супругов, в их дом заявляются незваные гости.
Качество исходника: WEB-DL 1080p (BlueBird)
Качество: WEB-DL
Тип: HD (1080p)
Контейнер: M4V
Видео: H.264, 1920x804, 2.40:1, 4 587 Kbps, 23.976 fps
Аудио 1: Русский/Дублированный (iTunes), AAC / 2.0 / 160 Kbps / 48.0 KHz
Аудио 2: Английский/Оригинальная дорожка , AAC / 2.0 / 160 Kbps / 48.0 KHz
Аудио 3: Украинский/Дублированный (iTunes), AAC / 2.0 / 160 Kbps / 48.0 KHz
Аудио 4: Русский/Дублированный (iTunes), AC-3 / 5.1 / 384 Kbps / 48.0 KHz
Аудио 5: Английский/Оригинальная дорожка , AC-3 / 5.1 / 384 Kbps / 48.0 KHz
Субтитры 1: Русские форсированные
Субтитры 2: Украинские форсированные
Субтитры 3: Русские полные
Субтитры 4: Украинские полные
Субтитры 5: Английские полные


Код:
Код: Выделить всё
Sort Name: mother!
XID: Apple:vendor_id:2017-938643
contentID: 1273360788
Copyright: © 2017 Paramount Pictures Corporation. All Rights Reserved
Screenwriters: Даррен Аронофски
Producers: Скотт Франклин, Эри Хэндел, Марк Хейман
Director: Даррен Аронофски
Cast: Дженнифер Лоуренс, Хавьер Бардем, Эд Харрис, Мишель Пфайффер, Брин Глисон, Донал Глисон, Йован Адепо, Amanda Chiu, Патриция Саммерсетт, Эрик Дэвис
Studio: Paramount Pictures
Rating: 5
Long Description: Отношения молодой пары оказываются под угрозой, когда, нарушая безмятежное существование супругов, в их дом заявляются незваные гости.
Description: Отношения молодой пары оказываются под угрозой, когда, нарушая безмятежное существование супругов, в их дом заявляются незваные гости.
Release Date: 2017-09-05T08:00:00Z
Genre: Drama
Artist: Darren Aronofsky
Name: mother!

Код:
Код: Выделить всё
General
Complete name : /Users/imac/HandBrake/mother!.WEB-DL.1080p.m4v
Format : MPEG-4
Codec ID : M4V
File size : 4.95 GiB
Duration : 2h 1mn
Overall bit rate mode : Variable
Overall bit rate : 5 831 Kbps
Movie name : mother!
Performer : Darren Aronofsky
Director : Даррен Аронофски
Actor : Дженнифер Лоуренс / Хавьер Бардем / Эд Харрис / Мишель Пфайффер / Брин Глисон / Донал Глисон / Йован Адепо / Amanda Chiu / Патриция Саммерсетт / Эрик Дэвис
Screenplay by : Даррен Аронофски
Producer : Скотт Франклин / Эри Хэндел / Марк Хейман
Production studio : Paramount Pictures
Genre : Drama
ContentType : Short Film
Description : Отношения молодой пары оказываются под угрозой, когда, нарушая безмятежное существование супругов, в их дом заявляются незваные гости.
Recorded date : UTC 2017-09-05 08:00:00
Encoded date : UTC 2017-12-07 08:50:15
Tagged date : UTC 2017-12-07 08:55:00
Copyright : © 2017 Paramount Pictures Corporation. All Rights Reserved
Cover : Yes
Rating : None
Title/Sort : mother!
LongDescription : Отношения молодой пары оказываются под угрозой, когда, нарушая безмятежное существование супругов, в их дом заявляются незваные гости.
AppleStoreCatalogID : 1273360788
Vendor : Apple:vendor_id:2017-938643
ContentRating : mpaa|R|400|
Video #1
ID : 1
Format : AVC
Format/Info : Advanced Video Codec
Format profile : High@L4
Format settings, CABAC : Yes
Format settings, ReFrames : 5 frames
Codec ID : avc1
Codec ID/Info : Advanced Video Coding
Duration : 2h 1mn
Bit rate : 4 587 Kbps
Width : 1 920 pixels
Height : 804 pixels
Display aspect ratio : 2.40:1
Frame rate mode : Variable
Frame rate : 23.976 fps
Minimum frame rate : 22.727 fps
Maximum frame rate : 24.390 fps
Color space : YUV
Chroma subsampling : 4:2:0
Bit depth : 8 bits
Scan type : Progressive
Bits/(Pixel*Frame) : 0.124
Stream size : 3.89 GiB (79%)
Title : Main Program
Language : English
Encoded date : UTC 2017-12-07 08:50:15
Tagged date : UTC 2017-12-07 08:52:48
Color range : Limited
Color primaries : BT.709
Transfer characteristics : BT.709
Matrix coefficients : BT.709
Video #2
ID : 13
Format : JPEG
Codec ID : jpeg
Duration : 2h 1mn
Bit rate mode : Variable
Bit rate : 608 bps
Width : 640 pixels
Height : 268 pixels
Display aspect ratio : 2.40:1
Frame rate mode : Variable
Frame rate : 0.003 fps
Minimum frame rate : 0.002 fps
Maximum frame rate : 0.005 fps
Color space : YUV
Chroma subsampling : 4:2:0
Bit depth : 8 bits
Compression mode : Lossy
Bits/(Pixel*Frame) : 1.182
Stream size : 495 KiB (0%)
Title : Chapter Images
Language : English
Encoded date : UTC 2017-12-07 08:52:56
Tagged date : UTC 2017-12-07 08:52:56
Audio #1
ID : 2
Format : AAC
Format/Info : Advanced Audio Codec
Format profile : LC
Codec ID : 40
Duration : 2h 1mn
Source duration : 2h 1mn
Bit rate mode : Variable
Bit rate : 155 Kbps
Maximum bit rate : 242 Kbps
Channel(s) : 2 channels
Channel positions : Front: L R
Sampling rate : 48.0 KHz
Compression mode : Lossy
Stream size : 134 MiB (3%)
Source stream size : 134 MiB (3%)
Title : Russian Stereo
Language : Russian
Encoded date : UTC 2017-12-07 08:50:15
Tagged date : UTC 2017-12-07 08:50:22
Audio #2
ID : 3
Format : AAC
Format/Info : Advanced Audio Codec
Format profile : LC
Codec ID : 40
Duration : 2h 1mn
Source duration : 2h 1mn
Bit rate mode : Variable
Bit rate : 155 Kbps
Maximum bit rate : 247 Kbps
Channel(s) : 2 channels
Channel positions : Front: L R
Sampling rate : 48.0 KHz
Compression mode : Lossy
Stream size : 134 MiB (3%)
Source stream size : 134 MiB (3%)
Title : English Stereo
Language : English
Encoded date : UTC 2017-12-07 08:50:15
Tagged date : UTC 2017-12-07 08:50:22
Audio #3
ID : 4
Format : AAC
Format/Info : Advanced Audio Codec
Format profile : LC
Codec ID : 40
Duration : 2h 1mn
Source duration : 2h 1mn
Bit rate mode : Variable
Bit rate : 156 Kbps
Maximum bit rate : 253 Kbps
Channel(s) : 2 channels
Channel positions : Front: L R
Sampling rate : 48.0 KHz
Compression mode : Lossy
Stream size : 135 MiB (3%)
Source stream size : 135 MiB (3%)
Title : Ukrainian Stereo
Language : Ukrainian
Encoded date : UTC 2017-12-07 08:50:15
Tagged date : UTC 2017-12-07 08:50:22
Audio #4
ID : 5
Format : AC-3
Format/Info : Audio Coding 3
Mode extension : CM (complete main)
Format settings, Endianness : Big
Codec ID : ac-3
Duration : 2h 1mn
Bit rate mode : Constant
Bit rate : 384 Kbps
Channel(s) : 6 channels
Channel positions : Front: L C R, Side: L R, LFE
Sampling rate : 48.0 KHz
Bit depth : 16 bits
Compression mode : Lossy
Stream size : 333 MiB (7%)
Title : Russian DD 5.1
Language : Russian
Encoded date : UTC 2017-12-07 08:50:15
Tagged date : UTC 2017-12-07 08:52:48
Audio #5
ID : 6
Format : AC-3
Format/Info : Audio Coding 3
Mode extension : CM (complete main)
Format settings, Endianness : Big
Codec ID : ac-3
Duration : 2h 1mn
Bit rate mode : Constant
Bit rate : 384 Kbps
Channel(s) : 6 channels
Channel positions : Front: L C R, Side: L R, LFE
Sampling rate : 48.0 KHz
Bit depth : 16 bits
Compression mode : Lossy
Stream size : 333 MiB (7%)
Title : English DD 5.1
Language : English
Encoded date : UTC 2017-12-07 08:50:15
Tagged date : UTC 2017-12-07 08:52:48
Text #1
ID : 7
Format : Timed Text
Muxing mode : sbtl
Codec ID : tx3g
Duration : 2h 1mn
Bit rate mode : Variable
Bit rate : 0 bps
Stream size : 96.0 Bytes (0%)
Title : Russian forced
Language : Russian
Encoded date : UTC 2017-12-07 08:50:15
Tagged date : UTC 2017-12-07 08:52:48
Text #2
ID : 8
Format : Timed Text
Muxing mode : sbtl
Codec ID : tx3g
Duration : 2h 1mn
Bit rate mode : Variable
Bit rate : 0 bps
Stream size : 100 Bytes (0%)
Title : Ukrainian forced
Language : Ukrainian
Encoded date : UTC 2017-12-07 08:50:15
Tagged date : UTC 2017-12-07 08:52:48
Text #3
ID : 9
Format : Timed Text
Muxing mode : sbtl
Codec ID : tx3g
Duration : 2h 1mn
Bit rate mode : Variable
Bit rate : 61 bps
Stream size : 53.9 KiB (0%)
Title : Russian full
Language : Russian
Encoded date : UTC 2017-12-07 08:50:15
Tagged date : UTC 2017-12-07 08:52:48
Text #4
ID : 10
Format : Timed Text
Muxing mode : sbtl
Codec ID : tx3g
Duration : 2h 1mn
Bit rate mode : Variable
Bit rate : 61 bps
Stream size : 54.4 KiB (0%)
Title : Ukrainian full
Language : Ukrainian
Encoded date : UTC 2017-12-07 08:50:15
Tagged date : UTC 2017-12-07 08:52:48
Text #5
ID : 11
Format : Timed Text
Muxing mode : sbtl
Codec ID : tx3g
Duration : 1h 56mn
Bit rate mode : Variable
Bit rate : 43 bps
Stream size : 36.8 KiB (0%)
Title : English full
Language : English
Encoded date : UTC 2017-12-07 08:50:15
Tagged date : UTC 2017-12-07 08:52:48
Menu #1
00:00:00.000 : 1
00:06:21.000 : 2
00:10:19.000 : 3
00:15:57.000 : 4
00:21:35.000 : 5
00:24:57.000 : 6
00:31:28.000 : 7
00:38:26.000 : 8
00:44:53.000 : 9
00:49:31.000 : 10
00:53:38.999 : 11
01:02:15.000 : 12
01:08:19.000 : 13
01:16:46.000 : 14
01:20:25.000 : 15
01:28:20.000 : 16
01:38:02.000 : 17
01:45:45.000 : 18
01:49:41.000 : 19
01:56:13.000 : 20
Menu #2
ID : 12
Codec ID : text
Duration : 2h 1mn
Language : English
Encoded date : UTC 2017-12-07 08:52:49
Tagged date : UTC 2017-12-07 08:52:49
00:00:00.000 : 1
00:06:21.000 : 2
00:10:19.000 : 3
00:15:57.000 : 4
00:21:35.000 : 5
00:24:57.000 : 6
00:31:28.000 : 7
00:38:26.000 : 8
00:44:53.000 : 9
00:49:31.000 : 10
00:53:38.999 : 11
01:02:15.000 : 12
01:08:19.000 : 13
01:16:46.000 : 14
01:20:25.000 : 15
01:28:20.000 : 16
01:38:02.000 : 17
01:45:45.000 : 18
01:49:41.000 : 19
01:56:13.000 : 20
Bit rate mode : VBR




Релиз подготовлен для просмотра на Apple TV, iPad, iPhone, iPod Touch.
Для просмотра данного релиза на компьютере с ОС Windows рекомендуется использовать VLC media player
 
Не забывайте говорить Спасибо. Не уходите с раздачи!   
Торрент: Зарегистрирован [07 дек 2017, 12:34] Для скачивания .torrent
необходима регистрация
Или скачать с помощью
MediaGet
Статус:
Проверен
 
.torrent скачан: 0 раз
Хэш: 5f2927004393f68dddb9c3ea0931b1f6c94ad0f5
Размер: 4.95 ГБ (5 312 485 476 байт)
Стать Автором раздачи
 
 
Раздал: 0 байт
Скачал: 0 байт
Ратио: Inf.
Сообщения: 358174
Зарегистрирован: 17 апр 2014, 13:57


  • Похожие торренты
    Ответы
    Просмотры
    Последнее сообщение

Вернуться в Фильмы HD для Apple TV

Кто сейчас на конференции

Сейчас эту тему просматривают: нет зарегистрированных пользователей и гости: 1

Ресурс не предоставляет электронные версии произведений, а занимается лишь коллекционированием и каталогизацией ссылок, присылаемых и публикуемых на форуме нашими читателями. Если вы являетесь правообладателем какого-либо представленного материала и не желаете чтобы ссылка на него находилась в нашем каталоге, свяжитесь с нами и мы незамедлительно удалим её. Файлы для обмена на трекере предоставлены пользователями сайта, и администрация не несёт ответственности за их содержание. Просьба не заливать файлы, защищенные авторскими правами, а также файлы нелегального содержания!
cron