Проект Минди / The Mindy Project / Сезон: 6 / Серии: 1-7 из 10 (Чарльз МакДугалл) [2017, США, комедия, WEBRip] MVO (Jaskier) + Original

 
 Статистика раздачи 
Размер: 1.98 ГБ   |  Зарегистрирован: 07 дек 2017, 13:20   |   .torrent скачан: 0 раз
Сидеров: 1  [ 0 байт/сек ]     Личеров: 0  [ 0 байт/сек ]  
  

Проект Минди / The Mindy Project / Сезон: 6 / Серии: 1-7 из 10 (Чарльз МакДугалл) [2017, США, комедия, WEBRip] MVO (Jaskier) + Original

Сообщение Nakazhu » 07 дек 2017, 13:20

Проект Минди | The Mindy Project

Год выпуска: 2017
Страна: США
Жанр: комедия
Продолжительность: ~ 00:25:00
Перевод: Профессиональный (многоголосый закадровый) | Jaskier
Режиссёр: Чарльз МакДугалл
В ролях:Минди Калинг, Эд Уикс, Крис Мессина, Анна Кэмп, Дана ДеЛоренцо, Зои Ярмон и др.
Описание: Главную героиню зовут Минди, и речь в сериале идет о ее жизненном проекте, в котором первый пункт — найти суженого. Минди Лахири с раннего детства страстная поклонница романтических комедий. Она выработала вкус: предпочитает классические произведения Норы Эфрон — «Неспящих в Сиэтле» и «Когда Гарри встретил Салли», но не брезгует и «Ноттинг Хиллом». Досконально изучила жанровые тропы, но личную жизнь так и не наладила, зато наладила карьеру. Минди 31 год, работает акушером-гинекологом в приличной клинике, перебивается нерегулярным сексом с невоздержанным коллегой (Эд Уикс). Можно заподозрить, будто причина амурных поражений Минди — в том, что она похожа на субтильную блондиночку Мег Райан, как тостер — на утюг. Но причина совсем в другом. Дело в ее характере: барышня высокомерна, грубовата, раздражающе самоуверенна, а вдобавок не закрывает рот. Но, с другой стороны, доктор Лахири умна и прямодушна и, в целом, беззлобна. В общем, нетипичная героиня ромкома, однако, как и всякий рожденный на этот свет, тоже заслуживает любви.

Качество: WEBRip
Формат: AVI
Видео: XviD, ~ 1500 kbps, 720x400 (16:9), 23.976 fps
Аудио 1: MP3, 48,0 КГц, 2 ch, 128 kbps - Rus
Аудио 2: MP3, 48,0 КГц, 2 ch, 128 kbps - Eng
Субтитры: отсутствуют
Реклама: Присутствует звуковая (два раза в начале и конце по 10 сек.)
Ссылка на предыдущие и альтернативные раздачи
Переведено и озвучено: студией Jaskier
Код:
Код: Выделить всё
Общее
Полное имя                               : F:\Jaskier\The.Mindy.Project.Season 6 (WEBRip l 400p l Jaskier)\The.Mindy.Project.S06E01.WEBRip.Jaskier.Rus.Eng.avi
Формат                                   : AVI
Формат/Информация                        : Audio Video Interleave
Размер файла                             : 297 Мбайт
Продолжительность                        : 23 м. 29 с.
Общий поток                              : 1768 Кбит/сек
Программа кодирования                    : VirtualDubMod 1.5.10.2 (build 2540/release)
Библиотека кодирования                   : VirtualDubMod build 2540/release
Видео
Идентификатор                            : 0
Формат                                   : MPEG-4 Visual
Профиль формата                          : Advanced Simple@L5
Параметр BVOP формата                    : 4
Параметр QPel формата                    : Нет
Параметр GMC формата                     : Без точки перехода
Параметр матрицы формата                 : Default (MPEG)
Идентификатор кодека                     : XVID
Идентификатор кодека/Подсказка           : XviD
Продолжительность                        : 23 м. 29 с.
Битрейт                                  : 1498 Кбит/сек
Ширина                                   : 720 пикселей
Высота                                   : 400 пикселей
Соотношение сторон                       : 16:9
Частота кадров                           : 23,976 (24000/1001) кадра/сек
Цветовое пространство                    : YUV
Субдискретизация насыщенности            : 4:2:0
Битовая глубина                          : 8 бит
Тип развёртки                            : Прогрессивная
Метод сжатия                             : С потерями
Бит/(Пиксели*Кадры)                      : 0.217
Размер потока                            : 252 Мбайт (85%)
Библиотека кодирования                   : XviD 1.2.1 (UTC 2008-12-04)
Аудио #1
Идентификатор                            : 1
Формат                                   : MPEG Audio
Версия формата                           : Version 1
Профиль формата                          : Layer 3
Режим                                    : Joint stereo
Расширение режима                        : MS Stereo
Идентификатор кодека                     : 55
Идентификатор кодека/Подсказка           : MP3
Продолжительность                        : 23 м. 29 с.
Вид битрейта                             : Постоянный
Битрейт                                  : 128 Кбит/сек
Каналы                                   : 2 канала
Частота                                  : 48,0 КГц
Метод сжатия                             : С потерями
Размер потока                            : 21,5 Мбайт (7%)
Выравнивание                             : Соединение по промежуткам
Продолжительность промежутка             : 42  мс. (1,00 видеокадр)
Время предзагрузки промежутка            : 504  мс.
Аудио #2
Идентификатор                            : 2
Формат                                   : MPEG Audio
Версия формата                           : Version 1
Профиль формата                          : Layer 3
Режим                                    : Joint stereo
Расширение режима                        : MS Stereo
Идентификатор кодека                     : 55
Идентификатор кодека/Подсказка           : MP3
Продолжительность                        : 23 м. 29 с.
Вид битрейта                             : Постоянный
Битрейт                                  : 128 Кбит/сек
Каналы                                   : 2 канала
Частота                                  : 48,0 КГц
Метод сжатия                             : С потерями
Размер потока                            : 21,5 Мбайт (7%)
Выравнивание                             : Соединение по промежуткам
Продолжительность промежутка             : 42  мс. (1,00 видеокадр)
Время предзагрузки промежутка            : 504  мс.

Когда раздача ведётся путём добавления новых серий, при каждом добавлении создётся новый торрент. Чтобы начать докачку новой серии, пользователям необходимо сделать следующее:
(1) остановить скачивание,
(2) удалить старый торрент у себя из клиента (старые серии удалять не надо),
(3) скачать новый торрент и запустить его у себя в клиенте вместо старого, при этом указать клиенту путь в старую папку, куда и должно происходить скачивание новых серий.
Ваш клиент при этом должен произвести хеширование (проверку) старой папки (если не производит сам - помогите ему сделать это), и будет докачивать только те серии, которых у вас ещё нет. Старые серии при этом не удаляются, а продолжают раздаваться!
Eсли вы уже удалили старые серии, то предотвратить повторную закачку старых серий можно, отжав галочку в соответсвующих местах при запуске нового торрента. По возможности, желательно не удалять старые серии как можно дольше, чтобы релизёр не столько продолжал раздавать старые серии, а смог сконцентрироваться на новых.

 
Не забывайте говорить Спасибо. Не уходите с раздачи!   
Торрент: Зарегистрирован [07 дек 2017, 13:20] Для скачивания .torrent
необходима регистрация
Или скачать с помощью
MediaGet
Статус:
Проверен
 
.torrent скачан: 0 раз
Хэш: d93eaa1078abe48cd15d6815b359637b5248245f
Размер: 1.98 ГБ (2 127 081 472 байт)
Стать Автором раздачи
 
 
Раздал: 0 байт
Скачал: 0 байт
Ратио: Inf.
Сообщения: 358174
Зарегистрирован: 17 апр 2014, 13:57


  • Похожие торренты
    Ответы
    Просмотры
    Последнее сообщение

Вернуться в Зарубежные сериалы

Кто сейчас на конференции

Сейчас эту тему просматривают: нет зарегистрированных пользователей и гости: 1

Ресурс не предоставляет электронные версии произведений, а занимается лишь коллекционированием и каталогизацией ссылок, присылаемых и публикуемых на форуме нашими читателями. Если вы являетесь правообладателем какого-либо представленного материала и не желаете чтобы ссылка на него находилась в нашем каталоге, свяжитесь с нами и мы незамедлительно удалим её. Файлы для обмена на трекере предоставлены пользователями сайта, и администрация не несёт ответственности за их содержание. Просьба не заливать файлы, защищенные авторскими правами, а также файлы нелегального содержания!
cron