Мой Казахстан! [2013, Казахстан, документальный, DVB] Original (Rus)

 
 Статистика раздачи 
Размер: 506.47 МБ   |  Зарегистрирован: 07 дек 2017, 13:21   |   .torrent скачан: 0 раз
Сидеров: 1  [ 0 байт/сек ]     Личеров: 0  [ 0 байт/сек ]  
  

Мой Казахстан! [2013, Казахстан, документальный, DVB] Original (Rus)

Сообщение Nakazhu » 07 дек 2017, 13:21

Мой Казахстан!
Страна: Казахстан
Жанр: документальный
Продолжительность: 00:29:57
Год выпуска: 2017
Перевод: не требуется
Субтитры: отсутствуют
Описание: Фильм показывает возможности технологической модернизации Казахстана.
Семпл: https://www.sendspace.com/file/6srovg
Качество: DVB [Ел Арна] (эфир 07.12.2017)
Формат: TS
Видео: AVC, 720х576 (16:9) @ 1047х576, 25 fps, ~2054 kbps, 0.198 bit/pixel
Аудио: [RUS] 48 kHz, MP2, 2 ch, 192 kbps
Код: Выделить всё
Общее
Идентификатор                            : 1 (0x1)
Полное имя                               : F:\Мой Казахстан! (2013).ts
Формат                                   : MPEG-TS
Размер файла                             : 506 Мбайт
Продолжительность                        : 29 м. 56 с.
Режим общего битрейта                    : Переменный
Общий поток                              : 2365 Кбит/сек
Видео
Идентификатор                            : 67 (0x43)
Идентификатор меню                       : 1 (0x1)
Формат                                   : AVC
Формат/Информация                        : Advanced Video Codec
Профиль формата                          : High@L3
Параметр CABAC формата                   : Да
Параметр RefFrames формата               : 3 кадра
Параметр GOP формата                     : M=4, N=32
Структура изображения                    : Frame
Идентификатор кодека                     : 27
Продолжительность                        : 29 м. 56 с.
Битрейт                                  : 2054 Кбит/сек
Ширина                                   : 720 пикселей
Высота                                   : 576 пикселей
Соотношение сторон                       : 16:9
Частота кадров                           : 25,000 кадров/сек
Стандарт вещания                         : Component
Цветовое пространство                    : YUV
Субдискретизация насыщенности            : 4:2:0
Битовая глубина                          : 8 бит
Тип развёртки                            : Чересстрочная
Метод сохранения типа развёртки          : Чередующиеся поля
Порядок развёртки                        : Верхнее поле первое
Бит/(Пиксели*Кадры)                      : 0.198
Размер потока                            : 440 Мбайт (87%)
Цветовой диапазон                        : Limited
Основные цвета                           : BT.601 PAL
Характеристики трансфера                 : BT.470 System B, BT.470 System G
Коэффициенты матрицы                     : BT.470 System B, BT.470 System G
Аудио
Идентификатор                            : 68 (0x44)
Идентификатор меню                       : 1 (0x1)
Формат                                   : MPEG Audio
Версия формата                           : Version 1
Профиль формата                          : Layer 2
Идентификатор кодека                     : 3
Продолжительность                        : 29 м. 56 с.
Вид битрейта                             : Постоянный
Битрейт                                  : 192 Кбит/сек
Каналы                                   : 2 канала
Частота                                  : 48,0 КГц
Метод сжатия                             : С потерями
Размер потока                            : 41,1 Мбайт (8%)
Язык                                     : English
 
Не забывайте говорить Спасибо. Не уходите с раздачи!   
Торрент: Зарегистрирован [07 дек 2017, 13:21] Для скачивания .torrent
необходима регистрация
Или скачать с помощью
MediaGet
Статус:
Проверен
 
.torrent скачан: 0 раз
Хэш: f213373add9f2b2f627388d4b310f2ac310de6b8
Размер: 506.47 МБ (531 071 048 байт)
Стать Автором раздачи
 
 
Раздал: 0 байт
Скачал: 0 байт
Ратио: Inf.
Сообщения: 358174
Зарегистрирован: 17 апр 2014, 13:57


  • Похожие торренты
    Ответы
    Просмотры
    Последнее сообщение

Вернуться в Документальные фильмы и телепередачи

Кто сейчас на конференции

Сейчас эту тему просматривают: нет зарегистрированных пользователей и гости: 1

Ресурс не предоставляет электронные версии произведений, а занимается лишь коллекционированием и каталогизацией ссылок, присылаемых и публикуемых на форуме нашими читателями. Если вы являетесь правообладателем какого-либо представленного материала и не желаете чтобы ссылка на него находилась в нашем каталоге, свяжитесь с нами и мы незамедлительно удалим её. Файлы для обмена на трекере предоставлены пользователями сайта, и администрация не несёт ответственности за их содержание. Просьба не заливать файлы, защищенные авторскими правами, а также файлы нелегального содержания!
cron