Война (Душенов. Война) (59 выпусков)(за 2017 год) [2017, военное обозрение, WEBRip]

 
 Статистика раздачи 
Размер: 46.75 ГБ   |  Зарегистрирован: 16 дек 2017, 20:41   |   .torrent скачан: 0 раз
Сидеров: 1  [ 0 байт/сек ]     Личеров: 0  [ 0 байт/сек ]  
  

Война (Душенов. Война) (59 выпусков)(за 2017 год) [2017, военное обозрение, WEBRip]

Сообщение Nakazhu » 16 дек 2017, 20:41

Война

Дата/Год выпуска: 2017
Страна
: Россия
Жанр: военное обозрение
Продолжительность: 59x ~ 01:00:00
Перевод: Не требуется
Русские субтитры: нет
Оригинальная аудиодорожка: русский
Телеканал: День ТВ
Описание: Программа Константина Душенова, посвящённая различным аспектам развития армии РФ и международной обстановке, связанной с военными угрозами суверенитету России, продвижением НАТО к нашим границам и попыткам провокаций, ведущих к Третьей мировой войне.
качество: WEBRip
формат: AVI
Видео: xvid, 720x400 (16:9), 25.000 fps, 1 200 Kbps (0.167 bit/pixel)
Аудио: MP3, 44.1 KHz, 2 ch, 192 Kbps, CBR
Война (выпуски за 2015 год)
Война (выпуски за 2016 год)
79. Война. Выпуск №79
80. Война. Выпуск №80
81. Война. Выпуск №81
82. Война. Выпуск №82
83. Война. Выпуск №83
84. Война. Выпуск №84
85. Война. Выпуск №85
86. Война. Выпуск №86
87. Война. Выпуск №87
88. Война. Выпуск №88
89. Война. Выпуск №89
90. Война. Выпуск №90
91. Война. Выпуск №91
92. Война. Выпуск №92
93. Война. Выпуск №93
94. Война. Выпуск №94
95. Война. Выпуск №95
96. Война. Выпуск №96
97. Война. Выпуск №97
98. Война. Выпуск №98
99. Война. Выпуск №99
100. Война. Выпуск №100
101. Война. Выпуск №101
102. Война. Выпуск №102
103. Война. Выпуск №103
104. Война. Выпуск №104
105. Война. Выпуск №105
106. Война. Выпуск №106
107. Война. Выпуск №107
108. Война. Выпуск №108
109. Война. Выпуск №109
110. Война. Выпуск №110
111. Война. Выпуск №111
112. Война. Выпуск №112
113. Война. Выпуск №113
114. Война. Выпуск №114
115. Война. Выпуск №115
116. Война. Выпуск №116
117. Война. Выпуск №117
118. Война. Выпуск №118
119. Война. Выпуск №119
120. Война. Выпуск №120
121. Война. Выпуск №121
122. Война. Выпуск №122
123. Война. Выпуск №123
124. Война. Выпуск №124
125. Война. Выпуск №125
126. Война. Выпуск №126
127. Война. Выпуск №127
128. Война. Выпуск №128
129. Война. Выпуск №129
130. Война. Выпуск №130
131. Война. Выпуск №131
132. Война. Выпуск №132
133. Война. Выпуск №133
134. Война. Выпуск №134
135. Война. Выпуск №135
136. Война. Выпуск №136
137. Война. Выпуск №137
Код: Выделить всё
General
Complete name                            : D:\документалка\День ТВ\Душевная беседа\Война (2017)\79. Война. Выпуск №79.avi
Format                                   : AVI
Format/Info                              : Audio Video Interleave
File size                                : 882 MiB
Duration                                 : 1h 27mn
Overall bit rate                         : 1 405 Kbps
Writing application                      : Lavf55.19.104
Video
ID                                       : 0
Format                                   : xvid
Codec ID                                 : xvid
Duration                                 : 1h 27mn
Bit rate                                 : 1 200 Kbps
Width                                    : 720 pixels
Height                                   : 400 pixels
Display aspect ratio                     : 16:9
Frame rate                               : 25.000 fps
Bits/(Pixel*Frame)                       : 0.167
Stream size                              : 754 MiB (85%)
Audio
ID                                       : 1
Format                                   : MPEG Audio
Format version                           : Version 1
Format profile                           : Layer 3
Mode                                     : Joint stereo
Mode extension                           : MS Stereo
Codec ID                                 : 55
Codec ID/Hint                            : MP3
Duration                                 : 1h 27mn
Bit rate mode                            : Constant
Bit rate                                 : 192 Kbps
Channel(s)                               : 2 channels
Sampling rate                            : 44.1 KHz
Compression mode                         : Lossy
Stream size                              : 121 MiB (14%)
Alignment                                : Aligned on interleaves
Interleave, duration                     : 26 ms (0.65 video frame)
Interleave, preload duration             : 26 ms
Writing library                          : LAME3.98.4
Внимание! Раздача ведётся путём добавления новых выпусков; при каждом добавлении создаётся новый торрент. Чтобы начать докачку нового выпуска, пользователям необходимо сделать следующее:
(1) остановить скачивание,
(2) удалить старый торрент у себя из клиента (старые серии удалять не надо),
(3) скачать новый торрент и запустить его у себя в клиенте вместо старого, при этом указать клиенту путь в старую папку куда и должно происходить скачивание новых выпусков.
Ваш клиент при этом должен произвести хеширование (проверку) старой папки (если не производит сам - помогите ему сделать это). В результате он будет докачивать только те выпуски, которых у Вас ещё нет. Старые выпуски при этом не удаляются, а продолжают раздаваться!
Eсли Вы уже удалили старые выпуски, то предотвратить их повторную закачку можно, сняв галочки в соответствующих местах при запуске нового торрента. По возможности, желательно не удалять старые выпуски как можно дольше, чтобы релизёр не только продолжал раздавать старые выпуски, но и смог сконцентрироваться на новых.
 
Не забывайте говорить Спасибо. Не уходите с раздачи!   
Торрент: Зарегистрирован [16 дек 2017, 20:41] Для скачивания .torrent
необходима регистрация
Или скачать с помощью
MediaGet
Статус:
Проверен
 
.torrent скачан: 0 раз
Хэш: 1abfa594eb05c0fc0b0943da0856569ddd24ecae
Размер: 46.75 ГБ (50 194 495 936 байт)
Стать Автором раздачи
 
 
Раздал: 0 байт
Скачал: 0 байт
Ратио: Inf.
Сообщения: 378386
Зарегистрирован: 17 апр 2014, 13:57


  • Похожие торренты
    Ответы
    Просмотры
    Последнее сообщение

Вернуться в Фильмы и телепередачи на военную тематику

Кто сейчас на конференции

Сейчас эту тему просматривают: нет зарегистрированных пользователей и гости: 1

Ресурс не предоставляет электронные версии произведений, а занимается лишь коллекционированием и каталогизацией ссылок, присылаемых и публикуемых на форуме нашими читателями. Если вы являетесь правообладателем какого-либо представленного материала и не желаете чтобы ссылка на него находилась в нашем каталоге, свяжитесь с нами и мы незамедлительно удалим её. Файлы для обмена на трекере предоставлены пользователями сайта, и администрация не несёт ответственности за их содержание. Просьба не заливать файлы, защищенные авторскими правами, а также файлы нелегального содержания!
cron