Оно / It (Андрес Мускетти / Andrés Muschietti) [2017, США, Канада, ужасы, триллер, BDRip 720p] [Расширенная версия / Extended Cut] Dub + Original Eng + Rus Subs

 
 Статистика раздачи 
Размер: 5.75 ГБ   |  Зарегистрирован: 23 дек 2017, 18:30   |   .torrent скачан: 0 раз
Сидеров: 1  [ 0 байт/сек ]     Личеров: 0  [ 0 байт/сек ]  
  

Оно / It (Андрес Мускетти / Andrés Muschietti) [2017, США, Канада, ужасы, триллер, BDRip 720p] [Расширенная версия / Extended Cut] Dub + Original Eng + Rus Subs

Сообщение Nakazhu » 23 дек 2017, 18:30

ОноIt
Год выпуска: 2017
Страна: США, Канада
Студия: Warner Bros. Pictures
Жанр: ужасы, триллер
Продолжительность: 02:23:38
Перевод: Профессиональный (полное дублирование)iTunes со вставками оригинала
Субтитры: русские (форс., полные)
Оригинальная аудиодорожка: английская
Режиссёр: Андрес Мускетти / Andrés Muschietti
В ролях: Джейден Либерер, Джереми Рэй Тейлор, София Лиллис, Финн Вулфард, Чоузен Джейкобс, Джек Грейзер, Уайатт Олефф, Билл Скарсгард, Николас Хэмилтон, Джейк Сим, Логан Томпсон, Оуэн Тиг, Джексон Роберт Скотт, Стивен Богерт, Стюарт Хьюз и др.
Описание: Когда в городке Дерри, штат Мэн, начинают пропадать дети, несколько ребят сталкиваются со своими величайшими страхами и вынуждены помериться силами со злобным клоуном Пеннивайзом, чьи проявления жестокости и список жертв уходят в глубь веков.
КиноПоиск | IMDb | Sample
Качество: BDRip 720p (Источник: Оно / It (2017) Blu-ray Disc -BLUEBIRD)
Формат: MKV
Видео: x264, 1280x534 (2.40:1), 23.976 fps, ~4847 kbps avg, 0.296 bit/pixel
Аудио #1: Russian 48.0 KHz, AC3, 3/2 (L,C,R,l,r) + LFE ch, ~384.00 kbps avg |Dub|
Аудио #3: English 48.0 KHz, AC3, 3/2 (L,C,R,l,r) + LFE ch, ~384.00 kbps avg |Original|
Формат субтитров: softsub (SRT)
Рип, работа со звуком, субтитрами и главами - whip93.
На расширенные моменты не было никаких субтитров, поэтому они создавались заново и переводились на слух.
Переходы я только в дубляже "сгладил", в оригинале они как есть.
General
Unique ID : 219257389937806261386967363981603996511 (0xA4F36FF1A4CCA139BB97F9CC27EB835F)
Complete name : F:\It.Chapter.One.2017.Extended.Cut.720p.BluRay.DD5.1.x264.-whip93.mkv
Format : Matroska
Format version : Version 4 / Version 2
File size : 5.75 GiB
Duration : 2h 23mn
Overall bit rate : 5 729 Kbps
Movie name : Оно | It: Chapter One (2017) - Release by whip93
Encoded date : UTC 2017-12-23 13:01:06
Writing application : mkvmerge v18.0.0 ('Apricity') 64-bit
Writing library : libebml v1.3.5 + libmatroska v1.4.8
DURATION : 02:22:39.153000000
NUMBER_OF_FRAMES : 105
NUMBER_OF_BYTES : 6376
_STATISTICS_WRITING_APP : mkvmerge v18.0.0 ('Apricity') 64-bit
_STATISTICS_WRITING_DATE_UT : 2017-12-23 13:01:06
_STATISTICS_TAGS : BPS DURATION NUMBER_OF_FRAMES NUMBER_OF_BYTES
Video
ID : 1
Format : AVC
Format/Info : Advanced Video Codec
Format profile : High@L4.1
Format settings, CABAC : Yes
Format settings, ReFrames : 12 frames
Codec ID : V_MPEG4/ISO/AVC
Duration : 2h 23mn
Bit rate : 4 847 Kbps
Width : 1 280 pixels
Height : 534 pixels
Display aspect ratio : 2.40:1
Frame rate mode : Constant
Frame rate : 23.976 fps
Color space : YUV
Chroma subsampling : 4:2:0
Bit depth : 8 bits
Scan type : Progressive
Bits/(Pixel*Frame) : 0.296
Stream size : 4.86 GiB (85%)
Title : Encoded by whip93
Writing library : x264 core 152 r2851 ba24899
Encoding settings : cabac=1 / ref=12 / deblock=1:-3:-3 / analyse=0x3:0x133 / me=umh / subme=11 / psy=1 / psy_rd=1.00:0.08 / mixed_ref=0 / me_range=64 / chroma_me=1 / trellis=2 / 8x8dct=1 / cqm=0 / deadzone=21,11 / fast_pskip=0 / chroma_qp_offset=-1 / threads=12 / lookahead_threads=3 / sliced_threads=0 / nr=0 / decimate=1 / interlaced=0 / bluray_compat=0 / constrained_intra=0 / bframes=14 / b_pyramid=2 / b_adapt=2 / b_bias=0 / direct=1 / weightb=1 / open_gop=0 / weightp=2 / keyint=240 / keyint_min=23 / scenecut=40 / intra_refresh=0 / rc_lookahead=90 / rc=crf / mbtree=1 / crf=15.0 / qcomp=0.72 / qpmin=0 / qpmax=69 / qpstep=4 / vbv_maxrate=50000 / vbv_bufsize=62500 / crf_max=0.0 / nal_hrd=none / filler=0 / ip_ratio=1.40 / aq=1:0.80
Language : English
Default : Yes
Forced : No
Color range : Limited
Color primaries : BT.709
Transfer characteristics : BT.709
Matrix coefficients : BT.709
Audio #1
ID : 2
Format : AC-3
Format/Info : Audio Coding 3
Mode extension : CM (complete main)
Format settings, Endianness : Big
Codec ID : A_AC3
Duration : 2h 23mn
Bit rate mode : Constant
Bit rate : 384 Kbps
Channel(s) : 6 channels
Channel positions : Front: L C R, Side: L R, LFE
Sampling rate : 48.0 KHz
Compression mode : Lossy
Stream size : 395 MiB (7%)
Title : Dub (iTunes)
Language : Russian
Default : Yes
Forced : No
Audio #2
ID : 3
Format : AC-3
Format/Info : Audio Coding 3
Mode extension : CM (complete main)
Format settings, Endianness : Big
Codec ID : A_AC3
Duration : 2h 23mn
Bit rate mode : Constant
Bit rate : 384 Kbps
Channel(s) : 6 channels
Channel positions : Front: L C R, Side: L R, LFE
Sampling rate : 48.0 KHz
Compression mode : Lossy
Stream size : 395 MiB (7%)
Title : Original
Language : English
Default : No
Forced : No
Text #1
ID : 4
Format : UTF-8
Codec ID : S_TEXT/UTF8
Codec ID/Info : UTF-8 Plain Text
Title : Forced
Language : Russian
Default : Yes
Forced : No
Text #2
ID : 5
Format : UTF-8
Codec ID : S_TEXT/UTF8
Codec ID/Info : UTF-8 Plain Text
Title : Переводман ft. whip93
Language : Russian
Default : No
Forced : No
Menu
00:00:00.000 : en:Chapter 1
00:09:23.646 : en:Chapter 2
00:18:31.861 : en:Chapter 3
00:28:41.428 : en:Chapter 4
00:38:52.247 : en:Chapter 5
00:48:34.705 : en:Chapter 6
01:03:36.313 : en:Chapter 7
01:13:00.042 : en:Chapter 8
01:21:06.069 : en:Chapter 9
01:31:42.164 : en:Chapter 10
01:45:16.476 : en:Chapter 11
01:56:13.717 : en:Chapter 12
02:11:38.849 : en:Chapter 13
02:18:00.044 : en:Chapter 14
02:23:36.108 : en:Chapter 15

 
Не забывайте говорить Спасибо. Не уходите с раздачи!   
Торрент: Зарегистрирован [23 дек 2017, 18:30] Для скачивания .torrent
необходима регистрация
Или скачать с помощью
MediaGet
Статус:
Проверен
 
.torrent скачан: 0 раз
Хэш: 127f56147e7f7f8b0f74d3de9f3f665ee6929309
Размер: 5.75 ГБ (6 171 782 295 байт)
Стать Автором раздачи
 
 
Раздал: 0 байт
Скачал: 0 байт
Ратио: Inf.
Сообщения: 381835
Зарегистрирован: 17 апр 2014, 13:57


Вернуться в Видео (Другое)

Кто сейчас на конференции

Сейчас эту тему просматривают: нет зарегистрированных пользователей и гости: 1

Ресурс не предоставляет электронные версии произведений, а занимается лишь коллекционированием и каталогизацией ссылок, присылаемых и публикуемых на форуме нашими читателями. Если вы являетесь правообладателем какого-либо представленного материала и не желаете чтобы ссылка на него находилась в нашем каталоге, свяжитесь с нами и мы незамедлительно удалим её. Файлы для обмена на трекере предоставлены пользователями сайта, и администрация не несёт ответственности за их содержание. Просьба не заливать файлы, защищенные авторскими правами, а также файлы нелегального содержания!
cron