Любимые актеры (32 выпускa) (Юлия Шипицына) [2012-2017, Документальный, биография, искусство, кинематограф, DVB]

 
 Статистика раздачи 
Размер: 21.74 ГБ   |  Зарегистрирован: 06 янв 2018, 20:02   |   .torrent скачан: 0 раз
Сидеров: 1  [ 0 байт/сек ]     Личеров: 0  [ 0 байт/сек ]  
  

Любимые актеры (32 выпускa) (Юлия Шипицына) [2012-2017, Документальный, биография, искусство, кинематограф, DVB]

Сообщение Nakazhu » 06 янв 2018, 20:03

Любимые актеры
Дата/Год выпуска: 2012-2017
Страна: Россия
Жанр: Документальный, биография, искусство, кинематограф
Продолжительность: 00:29:58
Перевод: Не требуется
Русские субтитры
: нет
Оригинальная аудиодорожка: русский
Режиссер: Юлия Шипицына
Телеканал: Мир
Релиз: dean10
Описание:
"Любимые актеры" - это фильм-портрет. Авторский взгляд на судьбу известного артиста. Ведущий программы - "коллекционер" актерских баек и историй. Нам интересен не только творческий путь актера, но и его личная жизнь. Его судьба непредсказуема. Взлеты, падения, надежды, разочарования. Нередко путь к славе оборачивается дорогой к забвению. Кроме главного героя в программе присутствуют его друзья, родственники, коллеги.
06.01.2017 _ добавил: 032. Караченцов Николай
Сэмпл: http://multi-up.com/1181802
качество: DVB
формат: MKV
Видео: AVC, 720x576 (16:9), 25 fps, 3 159 kb/s
Аудио: RU, MP2, 48 kHz, 2 ch, 192 Kbps
001. Белое солнце пустыни
002. Белый Анатолий
003. Богатырев Юрий
004. Боярский Михаил
005. Брондуков Борислав
006. Быков Леонид
007. Гайдай Леонид
008. Гараж
009. Гурченко Людмила
010. Девчата
011. Демьяненко Алекандр
012. Кононов Михаил
013. Крачковская Наталья
014. Куравлев Леонид
015. Леонов Евгений
016. Лужина Лариса
017. Невинный Вячеслав
018. Одиноким предоставляется общежитиe
019. Панкратов-Черный Александр
020. Папанов Анатолий
021. Певцов Дмитрий
022. Смирнов Алексей
023. Формула любви
024. Экипаж
025. Носик Владимир
026. Служебный роман
027. Борис Щербаков
028. Юнгвальд-Хилькевич Георгий
029. Кино на все времена. Офицеры
030. Любовь и голуби. Почти невыдуманная история
031. Вицин Георгий
032. Караченцов Николай
Код: Выделить всё
General
Unique ID                                : 268055904161834604280787604588198029923 (0xC9A9B0734FA20746EC017117F7E2EA63)
Complete name                            : E:\Любимые актеры\013. Крачковская Наталья.mkv
Format                                   : Matroska
Format version                           : Version 4 / Version 2
File size                                : 578 MiB
Duration                                 : 24 min 5 s
Overall bit rate mode                    : Variable
Overall bit rate                         : 3 353 kb/s
Encoded date                             : UTC 2018-01-02 09:26:54
Writing application                      : mkvmerge v19.0.0 ('Brave Captain') 32-bit
Writing library                          : libebml v1.3.5 + libmatroska v1.4.8
Video
ID                                       : 1
Format                                   : AVC
Format/Info                              : Advanced Video Codec
Format profile                           : Main@L3
Format settings                          : CABAC / 3 Ref Frames
Format settings, CABAC                   : Yes
Format settings, RefFrames               : 3 frames
Codec ID                                 : V_MPEG4/ISO/AVC
Duration                                 : 24 min 5 s
Bit rate mode                            : Variable
Bit rate                                 : 3 159 kb/s
Maximum bit rate                         : 9 800 kb/s
Width                                    : 720 pixels
Height                                   : 576 pixels
Display aspect ratio                     : 16:9
Frame rate mode                          : Constant
Frame rate                               : 25.000 FPS
Standard                                 : PAL
Color space                              : YUV
Chroma subsampling                       : 4:2:0
Bit depth                                : 8 bits
Scan type                                : Interlaced
Scan type, store method                  : Separated fields
Scan order                               : Top Field First
Bits/(Pixel*Frame)                       : 0.305
Stream size                              : 544 MiB (94%)
Default                                  : Yes
Forced                                   : No
Color range                              : Limited
Audio
ID                                       : 2
Format                                   : MPEG Audio
Format version                           : Version 1
Format profile                           : Layer 2
Codec ID                                 : A_MPEG/L2
Codec ID/Hint                            : MP2
Duration                                 : 24 min 5 s
Bit rate mode                            : Constant
Bit rate                                 : 192 kb/s
Channel(s)                               : 2 channels
Sampling rate                            : 48.0 kHz
Frame rate                               : 41.667 FPS (1152 SPF)
Compression mode                         : Lossy
Delay relative to video                  : 9 ms
Stream size                              : 33.1 MiB (6%)
Language                                 : Russian
Default                                  : Yes
Forced                                   : No
 
Не забывайте говорить Спасибо. Не уходите с раздачи!   
Торрент: Зарегистрирован [06 янв 2018, 20:02] Для скачивания .torrent
необходима регистрация
Или скачать с помощью
MediaGet
Статус:
Проверен
 
.torrent скачан: 0 раз
Хэш: f3a07b182bb1b9e267f9b196b2fe6d3d67806988
Размер: 21.74 ГБ (23 347 420 607 байт)
Стать Автором раздачи
 
 
Раздал: 0 байт
Скачал: 0 байт
Ратио: Inf.
Сообщения: 438766
Зарегистрирован: 17 апр 2014, 13:57


Вернуться в Бенефис. Мастера искусств отечественного Театра и Кино.

Кто сейчас на конференции

Сейчас эту тему просматривают: нет зарегистрированных пользователей и гости: 1

Ресурс не предоставляет электронные версии произведений, а занимается лишь коллекционированием и каталогизацией ссылок, присылаемых и публикуемых на форуме нашими читателями. Если вы являетесь правообладателем какого-либо представленного материала и не желаете чтобы ссылка на него находилась в нашем каталоге, свяжитесь с нами и мы незамедлительно удалим её. Файлы для обмена на трекере предоставлены пользователями сайта, и администрация не несёт ответственности за их содержание. Просьба не заливать файлы, защищенные авторскими правами, а также файлы нелегального содержания!
cron