Рождество Христово. Трансляция из Храма Христа Спасителя / Первый канал HD [06.01.2018, Богослужение, HDTVRip/MKV/H.264, 720p]

 
 Статистика раздачи 
Размер: 3.63 ГБ   |  Зарегистрирован: 07 янв 2018, 22:11   |   .torrent скачан: 0 раз
Сидеров: 1  [ 0 байт/сек ]     Личеров: 0  [ 0 байт/сек ]  
  

Рождество Христово. Трансляция из Храма Христа Спасителя / Первый канал HD [06.01.2018, Богослужение, HDTVRip/MKV/H.264, 720p]

Сообщение Nakazhu » 07 янв 2018, 22:11

Рождество Христово 2018
Трансляция из Храма Христа Спасителя

Дата/Год выпуска: 06.01.2018
Страна: Россия
Жанр: Богослужение
Продолжительность: 02:20:35
Перевод: Не требуется
Русские субтитры: нет
Телеканал:
Описание: Первый канал представляет трансляцию рождественского богослужения из Храма Христа Спасителя в Москве. Рождество – один из главных христианских праздников, установленный в честь рождения Иисуса Христа от Девы Марии. Русская православная церковь и другие церкви, использующие юлианский календарь, празднуют Рождество 7 января.
Автор рипа/записи:
Сэмпл: http://multi-up.com/1182406

Качество: HDTVRip
Формат видео: MKV
Видео: 1280x720p (16:9), 25 fps, H.264, ~3500 Kbps
Аудио: 44 kHz, AC3, 2 ch, ~192.00 kbps avg
Код: Выделить всё
Формат                                   : Matroska
Версия формата                           : Version 4 / Version 2
Размер файла                             : 3,63 Гбайт
Продолжительность                        : 2 ч. 20 м.
Общий поток                              : 3698 Кбит/сек
Название фильма                          : Рождество Христово-2018. Трансляция из Храма Христа Спасителя (Первый канал HD)[1080i by gmm120880]
Дата кодирования                         : UTC 2018-01-07T12:40:12Z
Программа кодирования                    : HandBrake 1.0.7 2017040900
Библиотека кодирования                   : Lavf57.7.2 / Lavf57.7.2
Видео
Идентификатор                            : 1
Формат                                   : AVC
Формат/Информация                        : Advanced Video Codec
Профиль формата                          : High@L3.1
Параметр CABAC формата                   : Да
Параметр ReFrames формата                : 4 кадра
Идентификатор кодека                     : V_MPEG4/ISO/AVC
Продолжительность                        : 2 ч. 20 м.
Битрейт                                  : 3500 Кбит/сек
Ширина                                   : 1280 пикселей
Высота                                   : 720 пикселей
Соотношение сторон                       : 16:9
Режим частоты кадров                     : Постоянный
Частота кадров                           : 25,000 кадров/сек
Цветовое пространство                    : YUV
Субдискретизация насыщенности            : 4:2:0
Битовая глубина                          : 8 бит
Тип развёртки                            : Прогрессивная
Бит/(Пиксели*Кадры)                      : 0.152
Размер потока                            : 3,37 Гбайт (93%)
Библиотека кодирования                   : x264 core 148 r2708 86b7198
Настройки программы                      : cabac=1 / ref=1 / deblock=1:0:0 / analyse=0x3:0x3 / me=dia / subme=1 / psy=1 / psy_rd=1.00:0.00 / mixed_ref=0 / me_range=16 / chroma_me=1 / trellis=0 / 8x8dct=1 / cqm=0 / deadzone=21,11 / fast_pskip=1 / chroma_qp_offset=0 / threads=6 / lookahead_threads=1 / sliced_threads=0 / nr=0 / decimate=1 / interlaced=0 / bluray_compat=0 / constrained_intra=0 / bframes=3 / b_pyramid=2 / b_adapt=1 / b_bias=0 / direct=1 / weightb=1 / open_gop=0 / weightp=1 / keyint=250 / keyint_min=25 / scenecut=40 / intra_refresh=0 / rc_lookahead=0 / rc=abr / mbtree=0 / bitrate=3500 / ratetol=1.0 / qcomp=0.60 / qpmin=0 / qpmax=69 / qpstep=4 / vbv_maxrate=17500 / vbv_bufsize=17500 / nal_hrd=none / filler=0 / ip_ratio=1.40 / pb_ratio=1.30 / aq=1:1.00
Default                                  : Да
Forced                                   : Нет
Цветовой диапазон                        : Limited
Основные цвета                           : BT.709
Характеристики трансфера                 : BT.709
Коэффициенты матрицы                     : BT.709
Аудио
Идентификатор                            : 2
Формат                                   : AC-3
Формат/Информация                        : Audio Coding 3
Расширение режима                        : CM (complete main)
Параметр Endianness формата              : Big
Идентификатор кодека                     : A_AC3
Продолжительность                        : 2 ч. 20 м.
Вид битрейта                             : Постоянный
Битрейт                                  : 192 Кбит/сек
Каналы                                   : 2 канала
Расположение каналов                     : Front: L R
Частота                                  : 44,1 КГц
Частота кадров                           : 28,711 кадров/сек (1536 spf)
Метод сжатия                             : С потерями
Задержка видео                           : -6 мс.
Размер потока                            : 193 Мбайт (5%)
Заголовок                                : Stereo
Default                                  : Да
Forced                                   : Нет
 
Не забывайте говорить Спасибо. Не уходите с раздачи!   
Торрент: Зарегистрирован [07 янв 2018, 22:11] Для скачивания .torrent
необходима регистрация
Или скачать с помощью
MediaGet
Статус:
Проверен
 
.torrent скачан: 0 раз
Хэш: b1eb6b0478a24d53c93470c2494c77d9669174b7
Размер: 3.63 ГБ (3 898 789 469 байт)
Стать Автором раздачи
 
 
Раздал: 0 байт
Скачал: 0 байт
Ратио: Inf.
Сообщения: 438925
Зарегистрирован: 17 апр 2014, 13:57


  • Похожие торренты
    Ответы
    Просмотры
    Последнее сообщение

Вернуться в Христианство (видео)

Кто сейчас на конференции

Сейчас эту тему просматривают: нет зарегистрированных пользователей и гости: 1

Ресурс не предоставляет электронные версии произведений, а занимается лишь коллекционированием и каталогизацией ссылок, присылаемых и публикуемых на форуме нашими читателями. Если вы являетесь правообладателем какого-либо представленного материала и не желаете чтобы ссылка на него находилась в нашем каталоге, свяжитесь с нами и мы незамедлительно удалим её. Файлы для обмена на трекере предоставлены пользователями сайта, и администрация не несёт ответственности за их содержание. Просьба не заливать файлы, защищенные авторскими правами, а также файлы нелегального содержания!
cron