Страница 1 из 1

Рождество Христово. Трансляция из Храма Христа Спасителя / Первый канал HD [06.01.2018, Богослужение, HDTVRip/AVI/XviD, 400p]

СообщениеДобавлено: 07 янв 2018, 22:26
Nakazhu
Рождество Христово 2018
Трансляция из Храма Христа Спасителя

Дата/Год выпуска: 06.01.2018
Страна: Россия
Жанр: Богослужение
Продолжительность: 02:20:35
Перевод: Не требуется
Русские субтитры: нет
Телеканал:
Описание: Первый канал представляет трансляцию рождественского богослужения из Храма Христа Спасителя в Москве. Рождество – один из главных христианских праздников, установленный в честь рождения Иисуса Христа от Девы Марии. Русская православная церковь и другие церкви, использующие юлианский календарь, празднуют Рождество 7 января.
Автор рипа/записи:
Сэмпл: http://multi-up.com/1182405

Качество: HDTVRip
Формат видео: AVI
Видео: 704x400p (16:9), 25 fps, XviD, ~1700 Kbps
Аудио: 48 kHz, MP3, 2 ch, ~128.00 kbps avg
Код: Выделить всё
Формат                                   : AVI
Формат/Информация                        : Audio Video Interleave
Размер файла                             : 1,80 Гбайт
Продолжительность                        : 2 ч. 20 м.
Общий поток                              : 1835 Кбит/сек
Программа кодирования                    : TMPGEnc Video Mastering Works 5 Version. 5.0.6.38
Библиотека кодирования                   : TMPGEnc Video Mastering Works 5 Version. 5.0.6.38
Авторское право                          : gmm120880
Видео
Идентификатор                            : 0
Формат                                   : MPEG-4 Visual
Профиль формата                          : Advanced Simple@L5
Параметр BVOP формата                    : 2
Параметр QPel формата                    : Нет
Параметр GMC формата                     : Без точки перехода
Параметр матрицы формата                 : Default (H.263)
Идентификатор кодека                     : XVID
Идентификатор кодека/Подсказка           : XviD
Продолжительность                        : 2 ч. 20 м.
Битрейт                                  : 1700 Кбит/сек
Ширина                                   : 704 пикселя
Высота                                   : 400 пикселей
Соотношение сторон                       : 16:9
Частота кадров                           : 25,000 кадров/сек
Цветовое пространство                    : YUV
Субдискретизация насыщенности            : 4:2:0
Битовая глубина                          : 8 бит
Тип развёртки                            : Прогрессивная
Метод сжатия                             : С потерями
Бит/(Пиксели*Кадры)                      : 0.241
Размер потока                            : 1,67 Гбайт (93%)
Библиотека кодирования                   : XviD 73
Аудио
Идентификатор                            : 1
Формат                                   : MPEG Audio
Версия формата                           : Version 1
Профиль формата                          : Layer 3
Режим                                    : Joint stereo
Расширение режима                        : MS Stereo
Идентификатор кодека                     : 55
Идентификатор кодека/Подсказка           : MP3
Продолжительность                        : 2 ч. 20 м.
Вид битрейта                             : Постоянный
Битрейт                                  : 128 Кбит/сек
Каналы                                   : 2 канала
Частота                                  : 48,0 КГц
Метод сжатия                             : С потерями
Размер потока                            : 129 Мбайт (7%)
Выравнивание                             : Соединение по промежуткам
Продолжительность промежутка             : 250  мс. (6,25 видеокадров)
Время предзагрузки промежутка            : 192  мс.