Пурга (Игорь Зайцев) [2017, Россия, комедия, WEB-DLRip]

 
 Статистика раздачи 
Размер: 1.45 ГБ   |  Зарегистрирован: 08 янв 2018, 01:17   |   .torrent скачан: 0 раз
Сидеров: 1  [ 0 байт/сек ]     Личеров: 0  [ 0 байт/сек ]  
  

Пурга (Игорь Зайцев) [2017, Россия, комедия, WEB-DLRip]

Сообщение Nakazhu » 08 янв 2018, 01:17

Пурга
Выпущено: Россия, ЗАО «Дирекция Кино»
Жанр: комедия
Год выпуска: 2017
Продолжительность: 01:32:36
Субтитры: нет
Режиссер: Игорь Зайцев
В ролях: Виктор Хориняк, Александра Тюфтей, Юлия Ковалёва, Роман Мадянов, Ростислав Бершауэр, Михаил Евланов, Максим Литовченко, Максим Битюков, Наталья Рычкова, Людмила Полякова, Нелли Неведина, Ирина Бякова, Виктор Супрун, Сергей Шеховцов, Денис Филимонов, Евгений Мундум, Юрий Ваксман
Описание: Оперативник криминальной полиции Женя Никифоров однажды сделал выбор между долгом и чувством. Спустя год Женя не может решить, что же правильней - быть честным по любви или счастливым по расчету? В канун Нового года его случайный знакомый Дед Мороз дает ему весьма необычный совет искупаться в снегу и загадать желание. Оно непременно исполнится, но при одном условии - нужно, как в детстве, точно знать, чего ты на самом деле хочешь.
Качество видео: WEB-DLRip
Формат видео: AVI
Видео: 720x400 (1.80:1), 25 fps, XviD build 73 ~2047 kbps avg, 0.28 bit/pixel
Аудио: 48 kHz, AC3 Dolby Digital, 2/0 (L,R) ch, ~192 kbps
Сэмпл
Код: Выделить всё
Код:
Код: Выделить всё
Format                      : AVI
Format/Info                 : Audio Video Interleave
File size                   : 1.45 GiB
Duration                    : 1 h 32 min
Overall bit rate            : 2 249 kb/s
Writing application         : VirtualDubMod 1.5.10.3 | www.virtualdub-fr.org || (build 2550/release)
Writing library             : VirtualDubMod build 2550/release
Video
ID                          : 0
Format                      : MPEG-4 Visual
Format profile              : Advanced Simple@L5
Format settings             : BVOP1 / Custom Matrix
Format settings, BVOP       : 1
Format settings, QPel       : No
Format settings, GMC        : No warppoints
Format settings, Matrix     : Custom
Codec ID                    : XVID
Codec ID/Hint               : XviD
Duration                    : 1 h 32 min
Bit rate                    : 2 048 kb/s
Width                       : 720 pixels
Height                      : 400 pixels
Display aspect ratio        : 16:9
Frame rate                  : 25.000 FPS
Color space                 : YUV
Chroma subsampling          : 4:2:0
Bit depth                   : 8 bits
Scan type                   : Progressive
Compression mode            : Lossy
Bits/(Pixel*Frame)          : 0.284
Stream size                 : 1.32 GiB (91%)
Writing library             : XviD 73
Audio
ID                          : 1
Format                      : AC-3
Format/Info                 : Audio Coding 3
Codec ID                    : 2000
Duration                    : 1 h 32 min
Bit rate mode               : Constant
Bit rate                    : 192 kb/s
Channel(s)                  : 2 channels
Channel positions           : Front: L R
Sampling rate               : 48.0 kHz
Frame rate                  : 31.250 FPS (1536 SPF)
Bit depth                   : 16 bits
Compression mode            : Lossy
Stream size                 : 127 MiB (9%)
Alignment                   : Split accross interleaves
Interleave, duration        : 40  ms (1.00 video frame)
Interleave, preload duratio : 500  ms
Service kind                : Complete Main

 
Не забывайте говорить Спасибо. Не уходите с раздачи!   
Торрент: Зарегистрирован [08 янв 2018, 01:17] Для скачивания .torrent
необходима регистрация
Или скачать с помощью
MediaGet
Статус:
Проверен
 
.torrent скачан: 0 раз
Хэш: 4cd39001f692818e9ddfe00789737b69d6b9de04
Размер: 1.45 ГБ (1 562 288 128 байт)
Стать Автором раздачи
 
 
Раздал: 0 байт
Скачал: 0 байт
Ратио: Inf.
Сообщения: 378296
Зарегистрирован: 17 апр 2014, 13:57


  • Похожие торренты
    Ответы
    Просмотры
    Последнее сообщение

Вернуться в Отечественное кино

Кто сейчас на конференции

Сейчас эту тему просматривают: нет зарегистрированных пользователей и гости: 1

Ресурс не предоставляет электронные версии произведений, а занимается лишь коллекционированием и каталогизацией ссылок, присылаемых и публикуемых на форуме нашими читателями. Если вы являетесь правообладателем какого-либо представленного материала и не желаете чтобы ссылка на него находилась в нашем каталоге, свяжитесь с нами и мы незамедлительно удалим её. Файлы для обмена на трекере предоставлены пользователями сайта, и администрация не несёт ответственности за их содержание. Просьба не заливать файлы, защищенные авторскими правами, а также файлы нелегального содержания!
cron