Покемон: Я Выбираю Тебя (Фильм 20) / Pokemon the Movie: I Choose You [Movie] [Без хардсаба] [RUS(int), ENG] [2017, детский, комедия, приключения, фэнтези, WEBRip] [1080p] [Американская версия]

 
 Статистика раздачи 
Размер: 3.39 ГБ   |  Зарегистрирован: 09 янв 2018, 00:47   |   .torrent скачан: 0 раз
Сидеров: 1  [ 0 байт/сек ]     Личеров: 0  [ 0 байт/сек ]  
  

Покемон: Я Выбираю Тебя (Фильм 20) / Pokemon the Movie: I Choose You [Movie] [Без хардсаба] [RUS(int), ENG] [2017, детский, комедия, приключения, фэнтези, WEBRip] [1080p] [Американская версия]

Сообщение Nakazhu » 09 янв 2018, 00:47


Покемон: Фильм 20 - Я Выбираю Тебя!
Pokemon: The Movie 20 - I Choose You!

Pokemon the Movie [FHD 1080p]: |1| |2| |3| |4| |5| |6| |7| |8| |9| |10| |11| |12| |13| |14b и 14w| |15| |16| |17| |18| |19| |20|

Страна: Япония / США
Год выпуска: 6 июля 2017 г.
Жанр: детский, комедия, приключения, фэнтези.
Тип: Movie
Продолжительность: 92 мин
Режиссер: Кунихико Юяма
Студия: OLM
Описание:
Эшу Кетчуму из Паллет Тауна исполняется 10 лет. Это означает, что он уже достаточно взрослый, чтобы стать тренером покемонов. Эш мечтает о приключениях, и должен получить своего первого покемона от профессора Оака.(с)LightEssence

Информация о релизе:
озвучка:
Озвучка: Chokoba [Anistar]
Перевод: StarTeam
Качество: WEBRip | Тип релиза: Без хардсаба | Формат видео: MKV
Релиз/Автор рипа: DisneyXD
Совместимость с бытовыми плеерами: Нет
Обновление от 08.01.2018
Видео: x264(8bit), 1920х1080, 4920 kbps, 23.976 fps(NTSC)
в составе контейнера:
Аудио 1: AC3, 192kbps, 48kHz, 2ch - Русский; Озвучка 1: [VO] - Одноголосый, Закадровый [Chokoba - Anistar] - Мужской вокал
Аудио 2: AC3, 192kbps, 48kHz, 2ch - Английский; Озвучка 2: [DUB] - Многоголосый, Дублированный [Оригинал]
Субтитры 1: SRT, Английский - DisneyXD
Код:
Код: Выделить всё
General
Unique ID                   : 292424794157103642239748152007410646231 (0xDBFEF77D3ED604D81F2F8C8B9250FCD7)
Complete name               : F:\Покемон\Torrent\20.Pokemon the Movie 20 - I Choose You [WEBRip-1080p].mkv
Format                      : Matroska
Format version              : Version 4 / Version 2
File size                   : 3.39 GiB
Duration                    : 1 h 32 min
Overall bit rate            : 5 238 kb/s
Movie name                  : Pokémon the Movie: I Choose You! (2017)
Encoded date                : UTC 2018-01-08 18:25:55
Writing application         : mkvmerge v19.0.0 ('Brave Captain') 64-bit
Writing library             : libebml v1.3.5 + libmatroska v1.4.8
Video
ID                          : 1
Format                      : AVC
Format/Info                 : Advanced Video Codec
Format profile              : High@L4
Format settings, CABAC      : Yes
Format settings, RefFrames  : 2 frames
Codec ID                    : V_MPEG4/ISO/AVC
Duration                    : 1 h 32 min
Bit rate                    : 4 920 kb/s
Width                       : 1 920 pixels
Height                      : 1 080 pixels
Display aspect ratio        : 16:9
Frame rate mode             : Constant
Frame rate                  : 23.976 (24000/1001) FPS
Original frame rate         : 24.000 FPS
Color space                 : YUV
Chroma subsampling          : 4:2:0
Bit depth                   : 8 bits
Scan type                   : Progressive
Bits/(Pixel*Frame)          : 0.099
Stream size                 : 3.14 GiB (93%)
Title                       : 20.Pokemon the Movie 20 - I Choose You - 2017 WEBRip [DisneyXD] [1080p]
Writing library             : x264 core 115 r1995M 5a37283
Encoding settings           : cabac=1 / ref=2 / deblock=1:0:0 / analyse=0x3:0x113 / me=hex / subme=2 / psy=1 / psy_rd=1.00:0.00 / mixed_ref=0 / me_range=16 / chroma_me=1 / trellis=0 / 8x8dct=1 / cqm=0 / deadzone=21,11 / fast_pskip=1 / chroma_qp_offset=0 / threads=4 / sliced_threads=0 / nr=250 / decimate=1 / interlaced=0 / bluray_compat=0 / constrained_intra=0 / bframes=0 / weightp=1 / keyint=250 / keyint_min=24 / scenecut=40 / intra_refresh=0 / rc_lookahead=10 / rc=2pass / mbtree=1 / bitrate=4920 / ratetol=1.0 / qcomp=0.60 / qpmin=5 / qpmax=69 / qpstep=4 / cplxblur=20.0 / qblur=0.5 / ip_ratio=1.40 / aq=1:1.00
Language                    : English
Default                     : Yes
Forced                      : No
Audio #1
ID                          : 2
Format                      : AC-3
Format/Info                 : Audio Coding 3
Format settings, Endianness : Big
Codec ID                    : A_AC3
Duration                    : 1 h 32 min
Bit rate mode               : Constant
Bit rate                    : 192 kb/s
Channel(s)                  : 2 channels
Channel positions           : Front: L R
Sampling rate               : 48.0 kHz
Frame rate                  : 31.250 FPS (1536 SPF)
Bit depth                   : 16 bits
Compression mode            : Lossy
Stream size                 : 127 MiB (4%)
Title                       : RUS [VO] - Любительский (Одноголосый, Закадровый) [Anistar - Chokoba, перевод: StarTeam]
Language                    : Russian
Service kind                : Complete Main
Default                     : Yes
Forced                      : No
Audio #2
ID                          : 3
Format                      : AC-3
Format/Info                 : Audio Coding 3
Format settings, Endianness : Big
Codec ID                    : A_AC3
Duration                    : 1 h 32 min
Bit rate mode               : Constant
Bit rate                    : 192 kb/s
Channel(s)                  : 2 channels
Channel positions           : Front: L R
Sampling rate               : 48.0 kHz
Frame rate                  : 31.250 FPS (1536 SPF)
Bit depth                   : 16 bits
Compression mode            : Lossy
Stream size                 : 127 MiB (4%)
Title                       : ENG [DUB]
Language                    : English
Service kind                : Complete Main
Default                     : No
Forced                      : No
Text
ID                          : 4
Format                      : UTF-8
Codec ID                    : S_TEXT/UTF8
Codec ID/Info               : UTF-8 Plain Text
Duration                    : 1 h 31 min
Bit rate                    : 79 b/s
Count of elements           : 1702
Stream size                 : 53.8 KiB (0%)
Title                       : ENG [SUB]
Language                    : English
Default                     : No
Forced                      : No


Внимание!!!

Если торрент не видит анонсеры рутрекера и не видит сидов (раздача выделена красным цветом в uTorrent) рекомендую воспользоваться этой или другими инструкциями по обходу блокировки
 
Не забывайте говорить Спасибо. Не уходите с раздачи!   
Торрент: Зарегистрирован [09 янв 2018, 00:47] Для скачивания .torrent
необходима регистрация
Или скачать с помощью
MediaGet
Статус:
Проверен
 
.torrent скачан: 0 раз
Хэш: 11f9c091b9659c01aaa8fcca99203e86389843d4
Размер: 3.39 ГБ (3 639 959 793 байт)
Стать Автором раздачи
 
 
Раздал: 0 байт
Скачал: 0 байт
Ратио: Inf.
Сообщения: 378392
Зарегистрирован: 17 апр 2014, 13:57


  • Похожие торренты
    Ответы
    Просмотры
    Последнее сообщение

Вернуться в Аниме (Основной)

Кто сейчас на конференции

Сейчас эту тему просматривают: нет зарегистрированных пользователей и гости: 1

Ресурс не предоставляет электронные версии произведений, а занимается лишь коллекционированием и каталогизацией ссылок, присылаемых и публикуемых на форуме нашими читателями. Если вы являетесь правообладателем какого-либо представленного материала и не желаете чтобы ссылка на него находилась в нашем каталоге, свяжитесь с нами и мы незамедлительно удалим её. Файлы для обмена на трекере предоставлены пользователями сайта, и администрация не несёт ответственности за их содержание. Просьба не заливать файлы, защищенные авторскими правами, а также файлы нелегального содержания!
cron