Вирус мести / Я / I (С. Шанкар / S. Shankar) [2015, Индия, Боевик, фантастика, фэнтези, триллер, WEBRip] [Full] MVO (МАТЧ!) + Original

 
 Статистика раздачи 
Размер: 2.2 ГБ   |  Зарегистрирован: 09 янв 2018, 17:06   |   .torrent скачан: 0 раз
Сидеров: 1  [ 0 байт/сек ]     Личеров: 0  [ 0 байт/сек ]  
  

Вирус мести / Я / I (С. Шанкар / S. Shankar) [2015, Индия, Боевик, фантастика, фэнтези, триллер, WEBRip] [Full] MVO (МАТЧ!) + Original

Сообщение Nakazhu » 09 янв 2018, 17:06

Вирус мести / Я / I / Full
Страна: Индия
Жанр: Боевик, фантастика, фэнтези, триллер
Год выпуска: 2015
Продолжительность: 03:07:24
Перевод: Профессиональный (многоголосый закадровый) МАТЧ HD
Субтитры: нет
Оригинальная аудиодорожка: тамильский
Режиссер: С. Шанкар / S. Shankar
В ролях: Чийян Викрам, Эми Джексон, Суреш Гопи, Упен Патель, Сантханам, Мохан Капур
Описание: Красавица Дия - звезда модельного бизнеса, но в то же время, скромная и порядочная девушка. Устав от домогательств своего партнера по съемкам, она обращается за помощью к звездному бодибилдеру Лингесану. Ее план прост: заменить наглого напарника Джона, сделав из Лингесана звезду. Однако деревянный качок никак не может постичь даже азов актерского мастерства, а потому менеджеру Дии, который тоже хочет помочь девушке, приходит на ум хитрый план, который удается и Лингесан становится самой популярной моделью. Однако завистники не дремлют, заключив подлый союз, они заражают Лингесана страшной и редкой болезнью...
Доп. информация: Рип с канала МАТЧ HD В видео присутствует периодическая табачная и алкогольная реклама на соответствующих сюжетах и логотип сайта (не очень в глаза бросается).
Сэмпл: http://multi-up.com/1182580
Качество видео: WEBRip
Формат видео: AVI
Видео: MPEG4, XviD, 720x304 (2.35:1), 24.000 fps, 1 275 Kbps (0.243 bit/pixel)
Аудио: AC-3, 48.0 KHz, 2 ch, 192 Kbps, CBR - русский
Аудио 2: AC-3, 48.0 KHz, 2 ch, 192 Kbps, CBR - тамильский
Код: Выделить всё
Общее
Полное имя                               : M:\Вирус мести.avi
Формат                                   : AVI
Формат/Информация                        : Audio Video Interleave
Профиль формата                          : OpenDML
Размер файла                             : 2,20 Гбайт
Продолжительность                        : 3 ч. 7 м.
Общий поток                              : 1677 Кбит/сек
Название фильма                          : Вирус мести / Я / I (2015)
Программа кодирования                    : VirtualDubMod 1.5.10.2 (build 2540/release)
Библиотека кодирования                   : VirtualDubMod build 2540/release
Авторское право                          : miha2154
Видео
Идентификатор                            : 0
Формат                                   : MPEG-4 Visual
Профиль формата                          : Advanced Simple@L5
Параметр BVOP формата                    : 1
Параметр QPel формата                    : Нет
Параметр GMC формата                     : Без точки перехода
Параметр матрицы формата                 : Выборочная
Идентификатор кодека                     : XVID
Идентификатор кодека/Подсказка           : XviD
Продолжительность                        : 3 ч. 7 м.
Битрейт                                  : 1275 Кбит/сек
Ширина                                   : 720 пикселей
Высота                                   : 304 пикселя
Соотношение сторон                       : 2,35:1
Частота кадров                           : 24,000 кадра/сек
Цветовое пространство                    : YUV
Субдискретизация насыщенности            : 4:2:0
Битовая глубина                          : 8 бит
Тип развёртки                            : Прогрессивная
Метод сжатия                             : С потерями
Бит/(Пиксели*Кадры)                      : 0.243
Размер потока                            : 1,67 Гбайт (76%)
Библиотека кодирования                   : XviD 65
Аудио #1
Идентификатор                            : 1
Формат                                   : AC-3
Формат/Информация                        : Audio Coding 3
Расширение режима                        : CM (complete main)
Параметр Endianness формата              : Big
Идентификатор кодека                     : 2000
Продолжительность                        : 3 ч. 7 м.
Вид битрейта                             : Постоянный
Битрейт                                  : 192 Кбит/сек
Каналы                                   : 2 канала
Расположение каналов                     : Front: L R
Частота                                  : 48,0 КГц
Частота кадров                           : 31,250 кадров/сек (1536 spf)
Метод сжатия                             : С потерями
Размер потока                            : 257 Мбайт (11%)
Выравнивание                             : Разделение по промежуткам
Продолжительность промежутка             : 42  мс. (1,00 видеокадр)
Время предзагрузки промежутка            : 500  мс.
Заголовок                                : Профессиональный (многоголосый, закадровый) МАТЧ
Аудио #2
Идентификатор                            : 2
Формат                                   : AC-3
Формат/Информация                        : Audio Coding 3
Расширение режима                        : CM (complete main)
Параметр Endianness формата              : Big
Идентификатор кодека                     : 2000
Продолжительность                        : 3 ч. 7 м.
Вид битрейта                             : Постоянный
Битрейт                                  : 192 Кбит/сек
Каналы                                   : 2 канала
Расположение каналов                     : Front: L R
Частота                                  : 48,0 КГц
Частота кадров                           : 31,250 кадров/сек (1536 spf)
Метод сжатия                             : С потерями
Размер потока                            : 257 Мбайт (11%)
Выравнивание                             : Разделение по промежуткам
Продолжительность промежутка             : 42  мс. (1,00 видеокадр)
Время предзагрузки промежутка            : 500  мс.
Заголовок                                : Тамильский

Торрент перезалит 9.01.18 - заменен hdtvrip на webrip с лучшей картинкой
 
Не забывайте говорить Спасибо. Не уходите с раздачи!   
Торрент: Зарегистрирован [09 янв 2018, 17:06] Для скачивания .torrent
необходима регистрация
Или скачать с помощью
MediaGet
Статус:
Проверен
 
.torrent скачан: 0 раз
Хэш: c54cf79f9d7ef9829a3cf1fed47a86d823258ac3
Размер: 2.2 ГБ (2 356 942 848 байт)
Стать Автором раздачи
 
 
Раздал: 0 байт
Скачал: 0 байт
Ратио: Inf.
Сообщения: 377961
Зарегистрирован: 17 апр 2014, 13:57


  • Похожие торренты
    Ответы
    Просмотры
    Последнее сообщение

Вернуться в Индийское кино

Кто сейчас на конференции

Сейчас эту тему просматривают: нет зарегистрированных пользователей и гости: 1

Ресурс не предоставляет электронные версии произведений, а занимается лишь коллекционированием и каталогизацией ссылок, присылаемых и публикуемых на форуме нашими читателями. Если вы являетесь правообладателем какого-либо представленного материала и не желаете чтобы ссылка на него находилась в нашем каталоге, свяжитесь с нами и мы незамедлительно удалим её. Файлы для обмена на трекере предоставлены пользователями сайта, и администрация не несёт ответственности за их содержание. Просьба не заливать файлы, защищенные авторскими правами, а также файлы нелегального содержания!
cron