Ковбой Бибоп / Cowboy Bibop (1998-1999) BDRip 720p | A

 
 Статистика раздачи 
Размер: 16.09 ГБ   |  Зарегистрирован: 11 янв 2018, 20:02   |   .torrent скачан: 0 раз
Сидеров: 1  [ 0 байт/сек ]     Личеров: 0  [ 0 байт/сек ]  
  

Ковбой Бибоп / Cowboy Bibop (1998-1999) BDRip 720p | A

Сообщение aLaVodka » 11 янв 2018, 20:02


#77

Год выпуска: 1998-1999
Страна: Япония
Жанр: приключения, комедия, драма, фантастика
Продолжительность: 26 эп. ~24 мин
Перевод: Авторский одноголосный (Ю. Сербин)

Режиссёр: Синъитиро Ватанабэ
Автор оригинала: Хадзимэ Ятатэ
Студия: Sunrise

Описание: В будущем люди успешно заселили планеты Солнечной системы, наполнили свою жизнь сложными технологиями, привыкли летать на космических кораблях – и при этом остались прежними. Никуда не исчезли ни мелкие воришки, ни мафиозные синдикаты, мошенники и шулера, как и раньше, обирают доверчивых бедолаг, а продажа наркотиков остаётся весьма прибыльным бизнесом. В 2071-м году честным людям всё так же трудно удержаться на плаву, а подлость с предательством гораздо престижнее благородства. Таковы законы жанра нуар.
Персонажи этого сериала многим покажутся знакомыми, ведь создавались они под впечатлением известных боевиков и гангстерских саг. Главные герои – «охотники за головами», которые по воле случая собрались на корабле Bebop 268170 и скитаются от порта к порту в поисках подходящих заказов. Эту команду прирождённых одиночек трудно назвать семьёй или даже друзьями, но что-то держит их вместе – может быть, надежда на удачу?..
Культовый сериал Синъитиро Ватанабэ давно уже признан классикой. Среди достоинств этого всемирно известного аниме – увлекательный детективно-приключенческий сюжет, где соединилась ирония и блюзовая грусть, великолепный саундтрек, отличный ансамбль сэйю и, разумеется, главные герои: бывший полицейский Джет Блэк, прекрасная картёжница Фэй Валентайн, юная хакерша Эд Айн, самая умная собака на свете, и Спайк Шпигель – «космический ковбой» с тёмным прошлым и привычкой всегда
рисковать...



Качество видео: BDRip 720
Видео: AVC, 968x722 (4:3), 23.976 fps, ~3263 Kbps
Аудио #1: AC3, 6 ch, 448 kbps (Ю. Сербин);
Субтитры: | Русские | Полные | Внешние |

Формат : Matroska
Версия формата : Version 4 / Version 2
Размер файла : 657 Мбайт
Продолжительность : 24 м.
Общий поток : 3715 Кбит/сек
Дата кодирования : UTC 2018-01-11 09:10:51
Программа кодирования : mkvmerge v8.9.0 ('Father Daughter') 64bit
Библиотека кодирования : libebml v1.3.3 + libmatroska v1.4.4

Видео
Идентификатор : 1
Формат : AVC
Формат/Информация : Advanced Video Codec
Профиль формата : High@L4.1
Параметр CABAC формата : Да
Параметр ReFrames формата : 11 кадров
Идентификатор кодека : V_MPEG4/ISO/AVC
Продолжительность : 24 м.
Битрейт : 3263 Кбит/сек
Ширина : 968 пикселей
Высота : 722 пикселя
Соотношение сторон : 4:3
Режим частоты кадров : Переменный
Частота кадров : 24,128 кадра/сек
Частота кадров в оригинале : 23,976 (24000/1001) кадра/сек
Цветовое пространство : YUV
Субдискретизация насыщенности : 4:2:0
Битовая глубина : 8 бит
Тип развёртки : Прогрессивная
Бит/(Пиксели*Кадры) : 0.194
Размер потока : 577 Мбайт (88%)
Заголовок : Episode 01 - Asteroid Blues
Библиотека кодирования : x264 core 129 r2245+729M 1a52e03
Настройки программы : cabac=1 / ref=11 / deblock=1:0:0 / analyse=0x3:0x133 / me=umh / subme=10 / psy=1 / fade_compensate=0.00 / psy_rd=1.00:0.00 / mixed_ref=1 / me_range=32 / chroma_me=1 / trellis=2 / 8x8dct=1 / cqm=0 / deadzone=21,11 / fast_pskip=0 / chroma_qp_offset=-4 / threads=4 / lookahead_threads=1 / sliced_threads=0 / nr=0 / decimate=1 / interlaced=0 / bluray_compat=0 / constrained_intra=0 / fgo=0 / bframes=10 / b_pyramid=2 / b_adapt=2 / b_bias=0 / direct=1 / weightb=1 / open_gop=0 / weightp=2 / keyint=240 / keyint_min=23 / scenecut=40 / intra_refresh=0 / rc_lookahead=50 / rc=crf / mbtree=1 / crf=17.0 / qcomp=0.80 / qpmin=10 / qpmax=51 / qpstep=4 / ip_ratio=1.40 / aq=1:1.00
Язык : Japanese
Default : Да
Forced : Нет

Аудио
Идентификатор : 2
Формат : AC-3
Формат/Информация : Audio Coding 3
Расширение режима : CM (complete main)
Параметр Endianness формата : Big
Идентификатор кодека : A_AC3
Продолжительность : 24 м.
Вид битрейта : Постоянный
Битрейт : 448 Кбит/сек
Каналы : 6 каналов
Расположение каналов : Front: L C R, Side: L R, LFE
Частота : 48,0 КГц
Частота кадров : 31,250 кадров/сек (1536 spf)
Метод сжатия : С потерями
Размер потока : 79,2 Мбайт (12%)
Язык : Russian
Default : Да
Forced : Нет

 
Не забывайте говорить Спасибо. Не уходите с раздачи!   
Торрент: Зарегистрирован [11 янв 2018, 20:02] Для скачивания .torrent
необходима регистрация
Или скачать с помощью
MediaGet
Статус:
Проверен
 
.torrent скачан: 0 раз
Хэш: 792980c268ed16499ba26522a73f42ee96aacc7a
Размер: 16.09 ГБ (17 277 366 685 байт)
Стать Автором раздачи
 
 
Раздал: 100 ГБ
Скачал: 0 байт
Ратио: Seed.
Сообщения: 189500
Зарегистрирован: 09 апр 2015, 20:00


  • Похожие торренты
    Ответы
    Просмотры
    Последнее сообщение

Вернуться в Аниме (Основной)

Кто сейчас на конференции

Сейчас эту тему просматривают: нет зарегистрированных пользователей и гости: 1

Ресурс не предоставляет электронные версии произведений, а занимается лишь коллекционированием и каталогизацией ссылок, присылаемых и публикуемых на форуме нашими читателями. Если вы являетесь правообладателем какого-либо представленного материала и не желаете чтобы ссылка на него находилась в нашем каталоге, свяжитесь с нами и мы незамедлительно удалим её. Файлы для обмена на трекере предоставлены пользователями сайта, и администрация не несёт ответственности за их содержание. Просьба не заливать файлы, защищенные авторскими правами, а также файлы нелегального содержания!
cron