Последний пир крокодилов / National Geographic: The Last Feast of the Crocodiles (Дэвид Хьюз / David Hughes) [1996, Документальный, VHSRip]

 
 Статистика раздачи 
Размер: 898.53 МБ   |  Зарегистрирован: 11 янв 2018, 23:44   |   .torrent скачан: 0 раз
Сидеров: 1  [ 0 байт/сек ]     Личеров: 0  [ 0 байт/сек ]  
  

Последний пир крокодилов / National Geographic: The Last Feast of the Crocodiles (Дэвид Хьюз / David Hughes) [1996, Документальный, VHSRip]

Сообщение Nakazhu » 11 янв 2018, 23:44

Последний пир крокодилов / National Geographic: The Last Feast of the Crocodiles
Дата/Год выпуска: 1996
Страна: США
Жанр: Документальный
Продолжительность: 00:51:58
Перевод: Авторский (одноголосый закадровый)
Доп. инфо о переводе: Юрий Сербин
Русские субтитры: нет
Режиссер: Дэвид Хьюз / David Hughes
Описание: В период немилосердной засухи обитатели бескрайних африканских просторов собираются у немногочисленных водоемов, жалких останков пересохших рек. У одного из таких источников воды в Национальном парке Крюгер нашли пристанище вечные враги: бабуины и львы, водяные птицы и змеи, лани и гиены. Все они вынуждены противостоять общему врагу, затаившемуся у илистых берегов: крокодилам, поджидающим свою добычу. Перед Вами уникальный рассказ о жертвах жестоких хищников и тех немногих счастливчиках, которым, несмотря ни на что, удалось дожить до волшебного сезона дождей, став невольными гостями на поразительном по своей жестокости пиру крокодилов.
Доп. информация: Личная оцифровка VHS от lexx652

Релиз
Сэмпл: https://yadi.sk/i/7Tz7-Rdi3RNsaM
качество: VHSRip
формат: AVI
Видео: 704x528 (1.33:1), 25 fps, XviD build 73 ~2214 kbps avg, 0.24 bit/pixel
Аудио: 48 kHz, AC3 Dolby Digital, 2/0 (L,R) ch, ~192 kbps
Код: Выделить всё
Последний Пир Крокодилов-1996 (VHSRip By lexx256).avi
Format                      : AVI
Format/Info                 : Audio Video Interleave
File size                   : 899 MiB
Duration                    : 51 min 58 s
Overall bit rate            : 2 417 kb/s
Writing application         : VirtualDubMod 1.5.10.3 | www.virtualdub-fr.org || (build 2550/release)
Writing library             : VirtualDubMod build 2550/release
Video
ID                          : 0
Format                      : MPEG-4 Visual
Format profile              : Advanced Simple@L5
Format settings, BVOP       : 2
Format settings, QPel       : No
Format settings, GMC        : No warppoints
Format settings, Matrix     : Custom
Codec ID                    : XVID
Codec ID/Hint               : XviD
Duration                    : 51 min 58 s
Bit rate                    : 2 215 kb/s
Width                       : 704 pixels
Height                      : 528 pixels
Display aspect ratio        : 4:3
Frame rate                  : 25.000 FPS
Color space                 : YUV
Chroma subsampling          : 4:2:0
Bit depth                   : 8 bits
Scan type                   : Progressive
Compression mode            : Lossy
Bits/(Pixel*Frame)          : 0.238
Stream size                 : 824 MiB (92%)
Writing library             : XviD 73
Audio
ID                          : 1
Format                      : AC-3
Format/Info                 : Audio Coding 3
Format settings, Endianness : Big
Codec ID                    : 2000
Duration                    : 51 min 58 s
Bit rate mode               : Constant
Bit rate                    : 192 kb/s
Channel(s)                  : 2 channels
Channel positions           : Front: L R
Sampling rate               : 48.0 kHz
Frame rate                  : 31.250 FPS (1536 spf)
Bit depth                   : 16 bits
Compression mode            : Lossy
Stream size                 : 71.4 MiB (8%)
Alignment                   : Split accross interleaves
Interleave, duration        : 40  ms (1.00 video frame)
Interleave, preload duratio : 500  ms
Service kind                : Complete Main
 
Не забывайте говорить Спасибо. Не уходите с раздачи!   
Торрент: Зарегистрирован [11 янв 2018, 23:44] Для скачивания .torrent
необходима регистрация
Или скачать с помощью
MediaGet
Статус:
Проверен
 
.torrent скачан: 0 раз
Хэш: a73ba24106b9469442f8f5ffe6a6987c478c13eb
Размер: 898.53 МБ (942 172 160 байт)
Стать Автором раздачи
 
 
Раздал: 0 байт
Скачал: 0 байт
Ратио: Inf.
Сообщения: 378386
Зарегистрирован: 17 апр 2014, 13:57


  • Похожие торренты
    Ответы
    Просмотры
    Последнее сообщение

Вернуться в Документальные фильмы и телепередачи

Кто сейчас на конференции

Сейчас эту тему просматривают: нет зарегистрированных пользователей и гости: 1

Ресурс не предоставляет электронные версии произведений, а занимается лишь коллекционированием и каталогизацией ссылок, присылаемых и публикуемых на форуме нашими читателями. Если вы являетесь правообладателем какого-либо представленного материала и не желаете чтобы ссылка на него находилась в нашем каталоге, свяжитесь с нами и мы незамедлительно удалим её. Файлы для обмена на трекере предоставлены пользователями сайта, и администрация не несёт ответственности за их содержание. Просьба не заливать файлы, защищенные авторскими правами, а также файлы нелегального содержания!
cron