Как вырастить мумию / Miira no Kaikata (Каори) [TV] [1 из 12] [Без хардсаба] [JAP+SUB] [2018, сверхъестественное, комедия, повседневность HDTVRip] [720p]

 
 Статистика раздачи 
Размер: 279.66 МБ   |  Зарегистрирован: 12 янв 2018, 22:24   |   .torrent скачан: 0 раз
Сидеров: 1  [ 0 байт/сек ]     Личеров: 0  [ 0 байт/сек ]  
  

Как вырастить мумию / Miira no Kaikata (Каори) [TV] [1 из 12] [Без хардсаба] [JAP+SUB] [2018, сверхъестественное, комедия, повседневность HDTVRip] [720p]

Сообщение Nakazhu » 12 янв 2018, 22:24

Сказочная девочка / Marchen Madchen
Страна: Япония
Год выпуска: 2018 г.
Тип: TV
Жанр: Сверхъестественное, комедия, повседневность
Продолжительность: 12 эп. по 25 мин
Русские субтитры: aniplay
Перевод: Hariken
Редактура: ShiYoru
Режиссер: Каори
Студия:
Описание: Сора Кашиваги - обыкновенный старшеклассник. Но вот отец у него весьма и весьма неординарный. Начнём с того, что он профессиональный путешественник. Дома практически не находится, зато всё время проводит в разных странах, выискивая там редкие вещицы. И всё бы ничего, да только он всё время присылает свои находки домой, каждый раз немало шокируя своего бедного сына. Вот и в этот раз, когда почтальон притащил огромную посылку, Сора немного напрягся, но такого поворота событий даже он никак не ожидал!
Его отец в данный момент находится в Египте и присылает Соре оттуда настоящую мумию! Ожидая увидеть нечто жуткое, Сора в страхе открывает посылку. Но, несмотря на её размер, мумия там оказалась совсем крохотная, с ладонь ростом, и даже вполне милая. Но что с ней делать? В Египет обратно не отправишь, значит нужно как-то содержать мумию дома. Но чем её кормить? Как ухаживать? Таких домашних животных у Соры ещё не было. Что ж, всё бывает в первый раз. Зато, если у вас тоже появится домашняя мумия, то, посмотрев это аниме, вы наверняка будете знать, что с ней делать!
Качество: HDTVRip | Равка: Leopard-Raws Формат: mp4 | Тип Видео: без хардсаба
Видео: х264, 8 bits, 1280x720, 1401 kbps, 23.976 fps, (16:9)
JP - AAC, 192 kbps, 48.0 KHz, 2 ch Язык Японский
01. White, Round, Tiny, Wimpy, and Ready
Общее
Полное имя : D:\[Leopard-Raws]\[Leopard-Raws] Miira no Kaikata\[Leopard-Raws] Miira no Kaikata - 01 RAW (TBS 1280x720 x264 AAC).mp4
Формат : MPEG-4
Профиль формата : Base Media
Идентификатор кодека : isom
Размер файла : 280 Мбайт
Продолжительность : 24 м.
Режим общего битрейта : Переменный
Общий поток : 1596 Кбит/сек
Дата кодирования : UTC 2018-01-12 06:05:10
Дата пометки : UTC 2018-01-12 06:05:10
Видео
Идентификатор : 1
Формат : AVC
Формат/Информация : Advanced Video Codec
Профиль формата : High@L4.1
Параметр CABAC формата : Да
Параметр ReFrames формата : 4 кадра
Идентификатор кодека : avc1
Идентификатор кодека/Информация : Advanced Video Coding
Продолжительность : 24 м.
Битрейт : 1401 Кбит/сек
Максимальный битрейт : 13,6 Мбит/сек
Ширина : 1280 пикселей
Высота : 720 пикселей
Соотношение сторон : 16:9
Режим частоты кадров : Постоянный
Частота кадров : 23,976 кадра/сек
Цветовое пространство : YUV
Субдискретизация насыщенности : 4:2:0
Битовая глубина : 8 бит
Тип развёртки : Прогрессивная
Бит/(Пиксели*Кадры) : 0.063
Размер потока : 245 Мбайт (88%)
Заголовок : 264:fps=23.976@GPAC0.5.2-DEV-rev376-g5eeb74d-master
Библиотека кодирования : x264 core 129 r2245+729M 1a52e03
Настройки программы : cabac=1 / ref=4 / deblock=1:1:-1 / analyse=0x3:0x113 / me=umh / subme=9 / psy=1 / fade_compensate=0.00 / psy_rd=1.00:0.00 / mixed_ref=1 / me_range=24 / chroma_me=1 / trellis=2 / 8x8dct=1 / cqm=0 / deadzone=21,11 / fast_pskip=1 / chroma_qp_offset=-2 / threads=8 / lookahead_threads=1 / sliced_threads=0 / nr=0 / decimate=1 / interlaced=0 / bluray_compat=0 / constrained_intra=0 / fgo=0 / bframes=9 / b_pyramid=2 / b_adapt=2 / b_bias=0 / direct=1 / weightb=1 / open_gop=0 / weightp=2 / keyint=240 / keyint_min=24 / scenecut=40 / intra_refresh=0 / rc=crf / mbtree=0 / crf=18.5 / qcomp=0.72 / qpmin=0 / qpmax=69 / qpstep=4 / ip_ratio=1.40 / pb_ratio=1.30 / aq=1:0.85
Дата кодирования : UTC 2018-01-12 06:05:10
Дата пометки : UTC 2018-01-12 06:05:12
Основные цвета : BT.709
Характеристики трансфера : BT.709
Коэффициенты матрицы : BT.709
Аудио
Идентификатор : 2
Формат : AAC
Формат/Информация : Advanced Audio Codec
Профиль формата : LC
Идентификатор кодека : 40
Продолжительность : 24 м.
Вид битрейта : Переменный
Битрейт : 192 Кбит/сек
Максимальный битрейт : 228 Кбит/сек
Каналы : 2 канала
Расположение каналов : Front: L R
Частота : 48,0 КГц
Метод сжатия : С потерями
Размер потока : 33,5 Мбайт (12%)
Язык : Japanese
Дата кодирования : UTC 2018-01-11 19:55:24
Дата пометки : UTC 2018-01-12 06:05:12
 
Не забывайте говорить Спасибо. Не уходите с раздачи!   
Торрент: Зарегистрирован [12 янв 2018, 22:24] Для скачивания .torrent
необходима регистрация
Или скачать с помощью
MediaGet
Статус:
Проверен
 
.torrent скачан: 0 раз
Хэш: fe0a8cb0c9915b36da6cd6ac139dfbdea55fef8d
Размер: 279.66 МБ (293 240 799 байт)
Стать Автором раздачи
 
 
Раздал: 0 байт
Скачал: 0 байт
Ратио: Inf.
Сообщения: 438766
Зарегистрирован: 17 апр 2014, 13:57


Вернуться в Аниме (HD и Blu-ray)

Кто сейчас на конференции

Сейчас эту тему просматривают: нет зарегистрированных пользователей и гости: 1

Ресурс не предоставляет электронные версии произведений, а занимается лишь коллекционированием и каталогизацией ссылок, присылаемых и публикуемых на форуме нашими читателями. Если вы являетесь правообладателем какого-либо представленного материала и не желаете чтобы ссылка на него находилась в нашем каталоге, свяжитесь с нами и мы незамедлительно удалим её. Файлы для обмена на трекере предоставлены пользователями сайта, и администрация не несёт ответственности за их содержание. Просьба не заливать файлы, защищенные авторскими правами, а также файлы нелегального содержания!
cron