Пророк / Il profeta (Дино Ризи / Dino Risi) [1968, Италия, Комедия, DVDRip] [Полная Версия] VO (SATKUR) + Sub Rus + Original Ita

 
 Статистика раздачи 
Размер: 1.37 ГБ   |  Зарегистрирован: 13 янв 2018, 10:16   |   .torrent скачан: 0 раз
Сидеров: 1  [ 0 байт/сек ]     Личеров: 0  [ 0 байт/сек ]  
  

Пророк / Il profeta (Дино Ризи / Dino Risi) [1968, Италия, Комедия, DVDRip] [Полная Версия] VO (SATKUR) + Sub Rus + Original Ita

Сообщение Nakazhu » 13 янв 2018, 10:16

Пророк / Il profeta / Полная Версия
Страна: Италия
Жанр: Комедия
Год выпуска: 1968
Продолжительность: 01:30:28
Перевод: Одноголосый закадровый SATKUR
Субтитры: Русские (на дыры)
Оригинальная аудиодорожка: Итальянский
Режиссер: Дино Ризи / Dino Risi
В ролях: Витторио Гассман, Энн-Маргрет, Джузеппе Альтамурра, Бруна Чеальти, Джефри Коплстон, Дино Курчио, Фиоренцо Фиорентини, Франко Гула, Джузеппе Лауричелла
Описание: Сатирическая комедия, рассказывающая о Пьетро Брешиа - человеке, решившем спрятаться от шума и суеты большого города в горах, подобно средневековым схимникам. Герою фильма это удается, однако через несколько лет место его уединения посещают представители властей и заставляют его явиться в суд для уплаты долгов по налогам. Пьетро вынужден покинуть свою хижину отшельника и отправиться в ненавистный ему Рим - город пороков, суеты и соблазнов.
Доп. информация: Рип с моего DVD (Полная версия) В Итальянской девятке версия кастрирована.
За работу с дорожкой, перевод и сабы Спасибо Urasik
Сэмпл: http://multi-up.com/1182987
Качество видео: DVDRip
Формат видео: AVI
Видео: XviD 704х528, 25.000 fps, 2 162 Kbps
Аудио 1: Русский (AC3 192 kbps 2 ch 48.0 KHz)
Аудио 2: Итальянский (AC3 192 kbps 2 ch 48.0 KHz)
Формат субтитров: softsub (SRT)
Код: Выделить всё
General
Complete name                            : C:\Documents and Settings\Admin\Мои документы\Downloads\Il profeta 1968\Il profeta.avi
Format                                   : AVI
Format/Info                              : Audio Video Interleave
File size                                : 1.37 GiB
Duration                                 : 1h 30mn
Overall bit rate                         : 2 162 Kbps
Writing application                      : VirtualDubMod 1.5.4.1 (build 2178/release)
Writing library                          : VirtualDubMod build 2178/release
Video
ID                                       : 0
Format                                   : MPEG-4 Visual
Format profile                           : Advanced Simple@L5
Format settings, BVOP                    : 1
Format settings, QPel                    : No
Format settings, GMC                     : No warppoints
Format settings, Matrix                  : Custom
Codec ID                                 : XVID
Codec ID/Hint                            : XviD
Duration                                 : 1h 30mn
Bit rate                                 : 1 770 Kbps
Width                                    : 704 pixels
Height                                   : 528 pixels
Display aspect ratio                     : 4:3
Frame rate                               : 25.000 fps
Color space                              : YUV
Chroma subsampling                       : 4:2:0
Bit depth                                : 8 bits
Scan type                                : Progressive
Compression mode                         : Lossy
Bits/(Pixel*Frame)                       : 0.190
Stream size                              : 1.12 GiB (82%)
Writing library                          : XviD 1.2.1 (UTC 2008-12-04)
Audio #1
ID                                       : 1
Format                                   : AC-3
Format/Info                              : Audio Coding 3
Mode extension                           : CM (complete main)
Format settings, Endianness              : Big
Codec ID                                 : 2000
Duration                                 : 1h 30mn
Bit rate mode                            : Constant
Bit rate                                 : 192 Kbps
Channel(s)                               : 2 channels
Channel positions                        : Front: L R
Sampling rate                            : 48.0 KHz
Bit depth                                : 16 bits
Compression mode                         : Lossy
Stream size                              : 124 MiB (9%)
Alignment                                : Split accross interleaves
Interleave, duration                     : 96 ms (2.40 video frames)
Interleave, preload duration             : 96 ms
Language                                 : Russian
Audio #2
ID                                       : 2
Format                                   : AC-3
Format/Info                              : Audio Coding 3
Mode extension                           : CM (complete main)
Format settings, Endianness              : Big
Codec ID                                 : 2000
Duration                                 : 1h 30mn
Bit rate mode                            : Constant
Bit rate                                 : 192 Kbps
Channel(s)                               : 2 channels
Channel positions                        : Front: L R
Sampling rate                            : 48.0 KHz
Bit depth                                : 16 bits
Compression mode                         : Lossy
Stream size                              : 124 MiB (9%)
Alignment                                : Split accross interleaves
Interleave, duration                     : 96 ms (2.40 video frames)
Interleave, preload duration             : 96 ms
Language                                 : Italiano
1
00:09:32,919 --> 00:09:34,480
Много лет, как послушник,...
2
00:09:34,600 --> 00:09:37,640
..Он обходится без женщин и курения.
3
00:09:38,200 --> 00:09:40,120
И, таким образом, весьма счастлив!
4
01:03:13,000 --> 01:03:15,760
Уважаемый Требосси,
Его Превосходительство Парендсано,
5
01:03:15,880 --> 01:03:18,520
Промышленник Доменичи
и генерал Толский.
6
01:03:18,800 --> 01:03:20,520
На самом деле очень мощная группа.
7
01:03:21,280 --> 01:03:23,960
Вам, пятером, в силах начать войну!
8
01:03:24,400 --> 01:03:26,360
- Всем нужен мир!
- Конечно.
9
01:03:26,840 --> 01:03:29,160
Но при этом вы будете
чувствовать себя не столь важными.
10
01:03:30,840 --> 01:03:34,160
Наш друг, уважаемый Баньи,
рассказал нам о вас много интересного.
11
01:03:34,679 --> 01:03:37,760
Да, он очень увлечен вашими идеями.
12
01:03:37,880 --> 01:03:41,680
Я с вами согласен. Мы слишком
всем примелькались и трудимся изо всех сил.
13
01:03:42,400 --> 01:03:43,800
Мы тоже не в тени.
14
01:03:43,920 --> 01:03:45,640
Но о нас говорят гораздо меньше.
15
01:09:33,720 --> 01:09:36,440
Прошу прощения, монсиньор,
но в своей жизни...
16
01:09:36,560 --> 01:09:38,920
..Я никогда не видел такого успеха,
как у Вас!
17
01:09:39,039 --> 01:09:41,120
Это умение, сын мой, умение!
18
01:09:43,800 --> 01:09:44,840
Извините меня.
19
01:09:45,279 --> 01:09:46,640
Природа требует своё...
20
01:09:51,640 --> 01:09:54,960
Умение это умение... Но я бы
назвал это другими словами.
21
01:10:13,380 --> 01:10:15,020
Прошу прощения.
 
Не забывайте говорить Спасибо. Не уходите с раздачи!   
Торрент: Зарегистрирован [13 янв 2018, 10:16] Для скачивания .torrent
необходима регистрация
Или скачать с помощью
MediaGet
Статус:
Проверен
 
.torrent скачан: 0 раз
Хэш: 34ea8d60905ba934647fef3bfd48f266f87ce70b
Размер: 1.37 ГБ (1 467 348 559 байт)
Стать Автором раздачи
 
 
Раздал: 0 байт
Скачал: 0 байт
Ратио: Inf.
Сообщения: 377953
Зарегистрирован: 17 апр 2014, 13:57


  • Похожие торренты
    Ответы
    Просмотры
    Последнее сообщение

Вернуться в Зарубежное кино

Кто сейчас на конференции

Сейчас эту тему просматривают: нет зарегистрированных пользователей и гости: 1

Ресурс не предоставляет электронные версии произведений, а занимается лишь коллекционированием и каталогизацией ссылок, присылаемых и публикуемых на форуме нашими читателями. Если вы являетесь правообладателем какого-либо представленного материала и не желаете чтобы ссылка на него находилась в нашем каталоге, свяжитесь с нами и мы незамедлительно удалим её. Файлы для обмена на трекере предоставлены пользователями сайта, и администрация не несёт ответственности за их содержание. Просьба не заливать файлы, защищенные авторскими правами, а также файлы нелегального содержания!
cron