Ох, уж этот дед! / Ce sacré grand-père (Жак Путрено / Jacques Poitrenaud) [1968, Франция, комедия, драма, Screener > DVD] [Советская прокатная копия] Dub (Ленфильм)

 
 Статистика раздачи 
Размер: 4.35 ГБ   |  Зарегистрирован: 13 янв 2018, 11:17   |   .torrent скачан: 0 раз
Сидеров: 1  [ 0 байт/сек ]     Личеров: 0  [ 0 байт/сек ]  
  

Ох, уж этот дед! / Ce sacré grand-père (Жак Путрено / Jacques Poitrenaud) [1968, Франция, комедия, драма, Screener > DVD] [Советская прокатная копия] Dub (Ленфильм)

Сообщение Nakazhu » 13 янв 2018, 11:17

Ох, уж этот дед! / Ce sacré grand-père [Советская прокатная копия]
Страна: Франция
Жанр: комедия, драма
Год выпуска: 1968
Продолжительность: 01:23:16
Перевод: Профессиональный (дублированный) - Киностудия "Ленфильм"
Субтитры: нет
Режиссер: Жак Путрено / Jacques Poitrenaud
В ролях: Мишель Симон, Мари Дюбуа, Ив Лефевр, Серж Генсбур, Мари Марке
| Релиз:
Описание: По роману Катрин Пезан "Меня зовут Жерико".
Это история о том, как старый ветеринар Жерико приглашает погостить к себе в деревню своего внука Жака и его жену Мари, собирающихся разводиться, и всеми способами пытается помирить их.
Семпл: http://sendfile.su/1391123
Тип релиза: Screener
Контейнер: DVD-Video
Видео: PAL 704x576 (4:3) @ 768x576, 25.000 fps, MPEG-2 Video, ~7100 Kbps, 0.700 bits/pixel
Аудио: Русский, 48.0 KHz, AC3, 2 ch, 256 Kbps
Код: Выделить всё
Title: Ох уж этот дед 1968 Dub Ленфильм
Size: 4.35 Gb ( 4 562 880,00 KBytes ) - DVD-5
Enabled regions: 1, 2, 3, 4, 5, 6, 7, 8
VTS_01 :
  Play Length: 01:23:16
  Video: PAL 4:3 (704x576) VBR
  Audio:
      Russian, AC3, 2/0 (L,R) ch, 256 kbps, Delay 0 mSec
Код: Выделить всё
General
Complete name                            : \Ох уж этот дед 1968 Dub Ленфильм\VIDEO_TS\VTS_01_1.VOB
Format                                   : MPEG-PS
File size                                : 1 024 MiB
Duration                                 : 19 min 8 s
Overall bit rate mode                    : Variable
Overall bit rate                         : 7 481 kb/s
Video
ID                                       : 224 (0xE0)
Format                                   : MPEG Video
Format version                           : Version 2
Format profile                           : Main@Main
Format settings                          : CustomMatrix / BVOP
Format settings, BVOP                    : Yes
Format settings, Matrix                  : Custom
Format settings, GOP                     : M=3, N=15
Format settings, picture structure       : Frame
Duration                                 : 19 min 8 s
Bit rate mode                            : Variable
Bit rate                                 : 7 100 kb/s
Width                                    : 704 pixels
Height                                   : 576 pixels
Display aspect ratio                     : 4:3
Frame rate                               : 25.000 FPS
Standard                                 : PAL
Color space                              : YUV
Chroma subsampling                       : 4:2:0
Bit depth                                : 8 bits
Scan type                                : Interlaced
Scan order                               : Top Field First
Compression mode                         : Lossy
Bits/(Pixel*Frame)                       : 0.700
Time code of first frame                 : 00:00:00:00
Time code source                         : Group of pictures header
Stream size                              : 969 MiB (95%)
Audio
ID                                       : 189 (0xBD)-128 (0x80)
Format                                   : AC-3
Format/Info                              : Audio Coding 3
Format settings, Endianness              : Big
Muxing mode                              : DVD-Video
Duration                                 : 19 min 7 s
Bit rate mode                            : Constant
Bit rate                                 : 256 kb/s
Channel(s)                               : 2 channels
Channel positions                        : Front: L R
Sampling rate                            : 48.0 kHz
Frame rate                               : 31.250 FPS (1536 SPF)
Bit depth                                : 16 bits
Compression mode                         : Lossy
Stream size                              : 35.0 MiB (3%)
Service kind                             : Complete Main
Menu
 
Не забывайте говорить Спасибо. Не уходите с раздачи!   
Торрент: Зарегистрирован [13 янв 2018, 11:17] Для скачивания .torrent
необходима регистрация
Или скачать с помощью
MediaGet
Статус:
Проверен
 
.torrent скачан: 0 раз
Хэш: 95c69ae8186dcf3229fb6aa1f237a5d8ff04900f
Размер: 4.35 ГБ (4 672 389 120 байт)
Стать Автором раздачи
 
 
Раздал: 0 байт
Скачал: 0 байт
Ратио: Inf.
Сообщения: 377961
Зарегистрирован: 17 апр 2014, 13:57


Вернуться в Зарубежное кино

Кто сейчас на конференции

Сейчас эту тему просматривают: нет зарегистрированных пользователей и гости: 1

Ресурс не предоставляет электронные версии произведений, а занимается лишь коллекционированием и каталогизацией ссылок, присылаемых и публикуемых на форуме нашими читателями. Если вы являетесь правообладателем какого-либо представленного материала и не желаете чтобы ссылка на него находилась в нашем каталоге, свяжитесь с нами и мы незамедлительно удалим её. Файлы для обмена на трекере предоставлены пользователями сайта, и администрация не несёт ответственности за их содержание. Просьба не заливать файлы, защищенные авторскими правами, а также файлы нелегального содержания!
cron