Мошенничество / Мошенники / Il bidone (Федерико Феллини / Federico Fellini) [1955, США, драма, BDRip] MVO + DVO

 
 Статистика раздачи 
Размер: 1.45 ГБ   |  Зарегистрирован: 13 янв 2018, 13:06   |   .torrent скачан: 0 раз
Сидеров: 1  [ 0 байт/сек ]     Личеров: 0  [ 0 байт/сек ]  
  

Мошенничество / Мошенники / Il bidone (Федерико Феллини / Federico Fellini) [1955, США, драма, BDRip] MVO + DVO

Сообщение Nakazhu » 13 янв 2018, 13:06

Мошенничество / Мошенники / Il bidone
Год выпуска: 1955
Страна: США
Жанр: драма
Продолжительность: 01:52:47.767 (162264 frames)
Перевод1: Профессиональный (многоголосый закадровый)
Перевод2: Профессиональный (двухголосый закадровый)
Оригинальная аудиодорожка: нет
Русские субтитры: нет
Режиссер: Федерико Феллини / Federico Fellini
В ролях: Бродерик Кроуфорд, Ричард Бэйзхарт, Франко Фабрици, Джульетта Мазина, Сью Эллен Блейк, Ирена Чефаро, Альберто Де Амичис, Лорелла ДеЛюка, Сара Симони, Джакомо Габриелли, Риккардо Гарроне, Этторе Бевилакуа, Марио Пассанте, Ксения Вальдери, Мария Заноли
Описание: Стареющий мелкий мошенник Августо с двумя напарниками живет тем, что обманывает бедных крестьян. Но напарники однажды оставляют его, чтобы вернуться в свои семьи, и тогда Августо должен собрать новую шайку.
Качество: BDRip
Формат: AVI
Видео кодек: XviD
Аудио кодек: МР3
Видео: 688x512 (1.34:1), 23.976 fps, XviD build 73 ~1570 kbps avg, 0.19 bit/pixel
Аудио: 48 kHz, MPEG Layer 3, 2 ch, ~128.00 kbps avg - МВО
Аудио: 48 kHz, MPEG Layer 3, 2 ch, ~128.00 kbps avg - ДВО
E:\004 Мои раздачи\moshennichestvo_1.46_[torrents.ru]_by_fylolya.avi
General
Complete name : E:\004 Мои раздачи\moshennichestvo_1.46_[torrents.ru]_by_fylolya.avi
Format : AVI
Format/Info : Audio Video Interleave
File size : 1.45 GiB
Duration : 1h 52mn
Overall bit rate : 1 841 Kbps
Director : bm11
Writing application : VirtualDubModRus 1.5.10.2 (build 2542/release)
Video
Format : MPEG-4 Visual
Format profile : Streaming Video@L1
Format settings, BVOP : Yes
Format settings, QPel : No
Format settings, GMC : No warppoints
Format settings, Matrix : Custom
Codec ID : XVID
Codec ID/Hint : XviD
Duration : 1h 52mn
Bit rate : 1 571 Kbps
Width : 688 pixels
Height : 512 pixels
Display aspect ratio : 4/3
Frame rate : 23.976 fps
Resolution : 24 bits
Colorimetry : 4:2:0
Scan type : Progressive
Bits/(Pixel*Frame) : 0.186
Stream size : 1.24 GiB (85%)
Writing library : XviD 73
Audio
Format : MPEG Audio
Format version : Version 1
Format profile : Layer 3
Codec ID : 55
Codec ID/Hint : MP3
Duration : 1h 52mn
Bit rate mode : Constant
Bit rate : 128 Kbps
Minimum bit rate : 128 Kbps
Channel(s) : 2 channels
Sampling rate : 48.0 KHz
Resolution : 16 bits
Stream size : 103 MiB (7%)
Alignment : Aligned on interleaves
Interleave, duration : 42 ms (1.00 video frame)
Interleave, preload duration : 504 ms
Writing library : LAME3.99r
Encoding settings : CBR
Audio
Format : MPEG Audio
Format version : Version 1
Format profile : Layer 3
Codec ID : 55
Codec ID/Hint : MP3
Duration : 1h 52mn
Bit rate mode : Constant
Bit rate : 128 Kbps
Minimum bit rate : 128 Kbps
Channel(s) : 2 channels
Sampling rate : 48.0 KHz
Resolution : 16 bits
Stream size : 103 MiB (7%)
Alignment : Aligned on interleaves
Interleave, duration : 42 ms (1.00 video frame)
Interleave, preload duration : 504 ms
Writing library : LAME3.99r
Encoding settings : CBR
Рип переделан с другого исходника. 13.01.18
 
Не забывайте говорить Спасибо. Не уходите с раздачи!   
Торрент: Зарегистрирован [13 янв 2018, 13:06] Для скачивания .torrent
необходима регистрация
Или скачать с помощью
MediaGet
Статус:
Проверен
 
.torrent скачан: 0 раз
Хэш: 588c4b3200e59523a7807e81e31c494a5702f11e
Размер: 1.45 ГБ (1 557 598 208 байт)
Стать Автором раздачи
 
 
Раздал: 0 байт
Скачал: 0 байт
Ратио: Inf.
Сообщения: 377961
Зарегистрирован: 17 апр 2014, 13:57


  • Похожие торренты
    Ответы
    Просмотры
    Последнее сообщение

Вернуться в Арт-хаус и авторское кино

Кто сейчас на конференции

Сейчас эту тему просматривают: нет зарегистрированных пользователей и гости: 1

Ресурс не предоставляет электронные версии произведений, а занимается лишь коллекционированием и каталогизацией ссылок, присылаемых и публикуемых на форуме нашими читателями. Если вы являетесь правообладателем какого-либо представленного материала и не желаете чтобы ссылка на него находилась в нашем каталоге, свяжитесь с нами и мы незамедлительно удалим её. Файлы для обмена на трекере предоставлены пользователями сайта, и администрация не несёт ответственности за их содержание. Просьба не заливать файлы, защищенные авторскими правами, а также файлы нелегального содержания!
cron