[ATV3] Борг/Макинрой / Borg McEnroe (Янус Мец / Janus Metz ) [2017, Швеция, Дания, Финляндия , Драма, биография, спорт, WEB-DL, HD (1080p)] DUB

 
 Статистика раздачи 
Размер: 3.84 ГБ   |  Зарегистрирован: 13 янв 2018, 14:55   |   .torrent скачан: 0 раз
Сидеров: 1  [ 0 байт/сек ]     Личеров: 0  [ 0 байт/сек ]  
  

[ATV3] Борг/Макинрой / Borg McEnroe (Янус Мец / Janus Metz ) [2017, Швеция, Дания, Финляндия , Драма, биография, спорт, WEB-DL, HD (1080p)] DUB

Сообщение Nakazhu » 13 янв 2018, 14:55

Борг/Макинрой / Borg McEnroe

«Некоторые звезды сияют вечно»
7.230 / 10 7.20 / 10
Год выпуска: 2017
Страна: Швеция, Дания, Финляндия
Жанр: Драма, биография, спорт
Продолжительность: 01:47:34
Перевод: Дублированный (iTunes)
Оригинальная аудиодорожка: Нет
Cубтитры: Нет
Режиссёр: Янус Мец
Сценарий: Ронни Сандаль
Продюсер: Питер Бенгтссон, Томас Эскильссон, Санне Глэссель
Оператор: Нильс Тастум
Композитор: Владислав Дилэй, Йон Экстранд, Carl-Johan Sevedag
Художник: Лина Нордквист, Луиз Дрэйк, Индржих Кочи
Монтаж: Пер К. Киркегор, Пер Сандхолт
В ролях: Сверрир Гуднасон, Шайа ЛаБаф, Стеллан Скарсгард, Тува Новотны, Лео Борг, Маркус Моссберг, Джексон Гэнн, Скотт Артур, Йен Блэкман, Роберт Эммс
Бюджет: SEK 65 000 000
Сборы в России: $28 263
Мировая премьера: 7 сентября 2017
Премьера (РФ): 5 октября 2017, «Capella Film»
Цифровой релиз: 07 января 2018, «Capella Film»
Описание: Две звезды, один судьбоносный матч и миллионы зрителей. Невозмутимый Борг против вспыльчивого Макинроя. Упорство против упрямства. Борьба двух противоположных характеров, движимых, однако, одной целью — быть лучшим!
Качество исходника: WEB-DL 1080p (NNMClub)
Качество: WEB-DL
Тип: HD (1080p)
Контейнер: M4V
Видео: H.264, 1920x804, 2.40:1, 4 559 Kbps, 24.000 fps
Аудио 1: Русский/Дублированный (iTunes), AAC / 2.0 / 160 Kbps / 48.0 KHz
Аудио 2: Русский/Дублированный (iTunes), AC-3 / 5.1 / 384 Kbps / 48.0 KHz


Код:
Код: Выделить всё
Sort Name: Борг/Макинрой
XID: Apple:vendor_id:2017-978613
contentID: 1317604534
Copyright: © 2017 Capella Film
Screenwriters: Ронни Сандаль
Producers: Питер Бенгтссон, Томас Эскильссон, Санне Глэссель
Director: Янус Мец
Cast: Сверрир Гуднасон, Шайа ЛаБаф, Стеллан Скарсгард, Тува Новотны, Лео Борг, Маркус Моссберг, Джексон Гэнн, Скотт Артур, Йен Блэкман, Роберт Эммс
Studio: Danish Film Institute, Film i Väst, Finnish Film Foundation, Nordisk Film, Nordisk Film- and TV-Fond, SF Film Production, SF Studios Production AB, SVT, Swedish Film Institute, Yellow Film and TV
Rating: 135
Long Description: Две звезды, один судьбоносный матч и миллионы зрителей.
Невозмутимый Борг против вспыльчивого Макинроя. Упорство против упрямства. Борьба двух противоположных характеров, движимых, однако, одной целью - быть лучшим!
Description: Две звезды, один судьбоносный матч и миллионы зрителей.
Невозмутимый Борг против вспыльчивого Макинроя. Упорство против упрямства. Борьба двух противоположных характеров, движимых, однако, одной целью - быть лучшим!
Release Date: 2017-09-07T08:00:00Z
Genre: Drama
Artist: Янус Мец
Name: Борг/Макинрой

Код:
Код: Выделить всё
General
Complete name : /Users/imac/HandBrake/Borg.McEnroe.WEB-DL.1080p.m4v
Format : MPEG-4
Codec ID : M4V
File size : 3.84 GiB
Duration : 1h 47mn
Overall bit rate mode : Variable
Overall bit rate : 5 107 Kbps
Movie name : Борг/Макинрой
Performer : Янус Мец
Director : Янус Мец
Actor : Сверрир Гуднасон / Шайа ЛаБаф / Стеллан Скарсгард / Тува Новотны / Лео Борг / Маркус Моссберг / Джексон Гэнн / Скотт Артур / Йен Блэкман / Роберт Эммс
Screenplay by : Ронни Сандаль
Producer : Питер Бенгтссон / Томас Эскильссон / Санне Глэссель
Production studio : Danish Film Institute, Film i Väst, Finnish Film Foundation, Nordisk Film, Nordisk Film- and TV-Fond, SF Film Production, SF Studios Production AB, SVT, Swedish Film Institute, Yellow Film and TV
Genre : Drama
ContentType : Short Film
Description : Две звезды, один судьбоносный матч и миллионы зрителей. / Невозмутимый Борг против вспыльчивого Макинроя. Упорство против упрямства. Борьба двух противоположных характеров, движимых, однако, одной целью - быть лучшим!
Recorded date : UTC 2017-09-07 08:00:00
Encoded date : UTC 2018-01-13 11:20:05
Tagged date : UTC 2018-01-13 11:23:03
Copyright : © 2017 Capella Film
Cover : Yes
Rating : None
Title/Sort : Борг/Макинрой
LongDescription : Две звезды, один судьбоносный матч и миллионы зрителей. / Невозмутимый Борг против вспыльчивого Макинроя. Упорство против упрямства. Борьба двух противоположных характеров, движимых, однако, одной целью - быть лучшим!
AppleStoreCatalogID : 1317604534
Vendor : Apple:vendor_id:2017-978613
ContentRating : ru-movie|16+|375|
Video #1
ID : 1
Format : AVC
Format/Info : Advanced Video Codec
Format profile : High@L4
Format settings, CABAC : Yes
Format settings, ReFrames : 5 frames
Codec ID : avc1
Codec ID/Info : Advanced Video Coding
Duration : 1h 47mn
Bit rate : 4 559 Kbps
Width : 1 920 pixels
Height : 804 pixels
Display aspect ratio : 2.40:1
Frame rate mode : Variable
Frame rate : 24.000 fps
Minimum frame rate : 23.810 fps
Maximum frame rate : 24.390 fps
Color space : YUV
Chroma subsampling : 4:2:0
Bit depth : 8 bits
Scan type : Progressive
Bits/(Pixel*Frame) : 0.123
Stream size : 3.43 GiB (89%)
Title : Main Program
Language : English
Encoded date : UTC 2018-01-13 11:20:05
Tagged date : UTC 2018-01-13 11:20:11
Color range : Limited
Color primaries : BT.709
Transfer characteristics : BT.709
Matrix coefficients : BT.709
Video #2
ID : 7
Format : JPEG
Codec ID : jpeg
Duration : 1h 47mn
Bit rate mode : Variable
Bit rate : 532 bps
Width : 640 pixels
Height : 268 pixels
Display aspect ratio : 2.40:1
Frame rate mode : Variable
Frame rate : 0.002 fps
Minimum frame rate : 0.001 fps
Maximum frame rate : 0.003 fps
Color space : YUV
Chroma subsampling : 4:2:0
Bit depth : 8 bits
Compression mode : Lossy
Bits/(Pixel*Frame) : 1.551
Stream size : 487 KiB (0%)
Title : Chapter Images
Language : English
Encoded date : UTC 2018-01-13 11:22:17
Tagged date : UTC 2018-01-13 11:22:18
Audio #1
ID : 2
Format : AAC
Format/Info : Advanced Audio Codec
Format profile : LC
Codec ID : 40
Duration : 1h 47mn
Source duration : 1h 47mn
Bit rate mode : Variable
Bit rate : 156 Kbps
Maximum bit rate : 228 Kbps
Channel(s) : 2 channels
Channel positions : Front: L R
Sampling rate : 48.0 KHz
Compression mode : Lossy
Stream size : 120 MiB (3%)
Source stream size : 120 MiB (3%)
Title : Russian Stereo
Language : Russian
Encoded date : UTC 2018-01-13 11:20:05
Tagged date : UTC 2018-01-13 11:20:13
Audio #2
ID : 3
Format : AC-3
Format/Info : Audio Coding 3
Mode extension : CM (complete main)
Format settings, Endianness : Big
Codec ID : ac-3
Duration : 1h 47mn
Bit rate mode : Constant
Bit rate : 384 Kbps
Channel(s) : 6 channels
Channel positions : Front: L C R, Side: L R, LFE
Sampling rate : 48.0 KHz
Bit depth : 16 bits
Compression mode : Lossy
Stream size : 295 MiB (8%)
Title : Russia DD 5.1
Language : Russian
Encoded date : UTC 2018-01-13 11:20:05
Tagged date : UTC 2018-01-13 11:20:11
Menu #1
00:00:00.000 : 1
00:08:46.375 : 2
00:16:57.583 : 3
00:23:56.541 : 4
00:30:08.499 : 5
00:37:06.207 : 6
00:42:22.665 : 7
00:48:13.123 : 8
00:53:49.706 : 9
01:00:37.789 : 10
01:06:30.080 : 11
01:11:20.288 : 12
01:17:41.746 : 13
01:24:55.579 : 14
01:32:33.079 : 15
Menu #2
ID : 6
Codec ID : text
Duration : 1h 47mn
Language : English
Encoded date : UTC 2018-01-13 11:21:50
Tagged date : UTC 2018-01-13 11:21:50
00:00:00.000 : 1
00:08:46.375 : 2
00:16:57.583 : 3
00:23:56.541 : 4
00:30:08.499 : 5
00:37:06.207 : 6
00:42:22.665 : 7
00:48:13.123 : 8
00:53:49.706 : 9
01:00:37.789 : 10
01:06:30.080 : 11
01:11:20.288 : 12
01:17:41.746 : 13
01:24:55.579 : 14
01:32:33.079 : 15
Bit rate mode : VBR




Релиз подготовлен для просмотра на Apple TV, iPad, iPhone, iPod Touch.
Для просмотра данного релиза на компьютере с ОС Windows рекомендуется использовать VLC media player
 
Не забывайте говорить Спасибо. Не уходите с раздачи!   
Торрент: Зарегистрирован [13 янв 2018, 14:55] Для скачивания .torrent
необходима регистрация
Или скачать с помощью
MediaGet
Статус:
Проверен
 
.torrent скачан: 0 раз
Хэш: 3b47a1c0d9fdeae3906ecbe31357fd78be72a60f
Размер: 3.84 ГБ (4 120 725 561 байт)
Стать Автором раздачи
 
 
Раздал: 0 байт
Скачал: 0 байт
Ратио: Inf.
Сообщения: 377972
Зарегистрирован: 17 апр 2014, 13:57


  • Похожие торренты
    Ответы
    Просмотры
    Последнее сообщение

Вернуться в Фильмы HD для Apple TV

Кто сейчас на конференции

Сейчас эту тему просматривают: нет зарегистрированных пользователей и гости: 1

Ресурс не предоставляет электронные версии произведений, а занимается лишь коллекционированием и каталогизацией ссылок, присылаемых и публикуемых на форуме нашими читателями. Если вы являетесь правообладателем какого-либо представленного материала и не желаете чтобы ссылка на него находилась в нашем каталоге, свяжитесь с нами и мы незамедлительно удалим её. Файлы для обмена на трекере предоставлены пользователями сайта, и администрация не несёт ответственности за их содержание. Просьба не заливать файлы, защищенные авторскими правами, а также файлы нелегального содержания!
cron