Зайчик (Леонид Быков) [1964, СССР, лирическая комедия, DVB] [Реставрация "Крупный план"]

 
 Статистика раздачи 
Размер: 1.33 ГБ   |  Зарегистрирован: 13 янв 2018, 15:57   |   .torrent скачан: 0 раз
Сидеров: 1  [ 0 байт/сек ]     Личеров: 0  [ 0 байт/сек ]  
  

Зайчик (Леонид Быков) [1964, СССР, лирическая комедия, DVB] [Реставрация "Крупный план"]

Сообщение Nakazhu » 13 янв 2018, 15:57

Зайчик [Реставрация "Крупный план"]
Страна: СССР
Жанр: лирическая комедия
Год выпуска: 1964
Продолжительность: 01:22:17
Субтитры: нет
Режиссер: Леонид Быков
В ролях: Леонид Быков, Ольга Красина, Игорь Горбачёв, Сергей Филиппов, Георгий Вицин, Алексей Смирнов, Игорь Дмитриев, Лев Степанов, Гликерия Богданова-Чеснокова, Алексей Кожевников, Евгений Барков, Михаил Васильев, Николай Гаврилов...
Описание: Скромный и робкий театральный гримёр по фамилии Зайчик неожиданно узнаёт, что ему осталось жить всего месяц. Он решает прожить последние дни с достоинством и пользой. Зайчик начинает делать то, на что не решался всю жизнь: ставить на место хамов, защищать людей от несправедливости и самоуправства, не задумываясь бросаться на помощь тому, кто в этом нуждается. Теперь он не боится, как раньше, остаться в одиночестве или оказаться в смешном положении. В конце концов выясняется, что смертельный диагноз, который он подслушал в поликлинике, относился совсем не к нему, а к обыкновенному зайчику (точнее, кролику). Но к тому времени Зайчик стал уже совершенно другим человеком — решительным, отважным и знающим себе цену.
Релиз:
Семпл: http://sendfile.su/1391202
Тип релиза: DVB
Контейнер: TS
Видео: 720x576 (4:3) @ 786x576, 25.000 fps, AVC, ~2003 Kbps, 0.193 bits/pixel
Аудио: Русский, 48.0 KHz, MPEG-1 Audio layer 2, 2 ch, 192 Kbps
Код: Выделить всё
General
ID                                       : 1 (0x1)
Complete name                            : Зайчик 1964 Родное кино.ts
Format                                   : MPEG-TS
File size                                : 1.33 GiB
Duration                                 : 1 h 22 min
Overall bit rate mode                    : Variable
Overall bit rate                         : 2 311 kb/s
Video
ID                                       : 215 (0xD7)
Menu ID                                  : 1 (0x1)
Format                                   : AVC
Format/Info                              : Advanced Video Codec
Format profile                           : High@L3
Format settings                          : CABAC / 4 Ref Frames
Format settings, CABAC                   : Yes
Format settings, RefFrames               : 4 frames
Format settings, GOP                     : M=4, N=28
Codec ID                                 : 27
Duration                                 : 1 h 22 min
Bit rate                                 : 2 003 kb/s
Width                                    : 720 pixels
Height                                   : 576 pixels
Display aspect ratio                     : 4:3
Frame rate                               : 25.000 FPS
Standard                                 : Component
Color space                              : YUV
Chroma subsampling                       : 4:2:0
Bit depth                                : 8 bits
Scan type                                : Interlaced
Scan type, store method                  : Separated fields
Scan order                               : Top Field First
Bits/(Pixel*Frame)                       : 0.193
Stream size                              : 1.15 GiB (87%)
Color range                              : Limited
Color primaries                          : BT.601 PAL
Transfer characteristics                 : BT.470 System B, BT.470 System G
Matrix coefficients                      : BT.470 System B, BT.470 System G
Audio
ID                                       : 315 (0x13B)
Menu ID                                  : 1 (0x1)
Format                                   : MPEG Audio
Format version                           : Version 1
Format profile                           : Layer 2
Codec ID                                 : 3
Duration                                 : 1 h 22 min
Bit rate mode                            : Constant
Bit rate                                 : 192 kb/s
Channel(s)                               : 2 channels
Sampling rate                            : 48.0 kHz
Compression mode                         : Lossy
Delay relative to video                  : -40 ms
Stream size                              : 113 MiB (8%)
Language                                 : Russian
 
Не забывайте говорить Спасибо. Не уходите с раздачи!   
Торрент: Зарегистрирован [13 янв 2018, 15:57] Для скачивания .torrent
необходима регистрация
Или скачать с помощью
MediaGet
Статус:
Проверен
 
.torrent скачан: 0 раз
Хэш: e0356a74599d29ca463a8e5ff82d4c4dab4798ea
Размер: 1.33 ГБ (1 426 449 436 байт)
Стать Автором раздачи
 
 
Раздал: 0 байт
Скачал: 0 байт
Ратио: Inf.
Сообщения: 378375
Зарегистрирован: 17 апр 2014, 13:57


  • Похожие торренты
    Ответы
    Просмотры
    Последнее сообщение

Вернуться в Кино СССР, Советской России, Российской республики (1917-1991)

Кто сейчас на конференции

Сейчас эту тему просматривают: нет зарегистрированных пользователей и гости: 1

Ресурс не предоставляет электронные версии произведений, а занимается лишь коллекционированием и каталогизацией ссылок, присылаемых и публикуемых на форуме нашими читателями. Если вы являетесь правообладателем какого-либо представленного материала и не желаете чтобы ссылка на него находилась в нашем каталоге, свяжитесь с нами и мы незамедлительно удалим её. Файлы для обмена на трекере предоставлены пользователями сайта, и администрация не несёт ответственности за их содержание. Просьба не заливать файлы, защищенные авторскими правами, а также файлы нелегального содержания!
cron