Кровь Невинных / Невинная кровь / Innocent Blood (Джон Лэндис / John Landis) [1992, США, ужасы, триллер, криминал, BDRip-AVC] [Uncut] MVO (НТВ,ТВ3) + DVO + AVO (Гаврилов,Живов) + Original Eng + Sub (Rus, Eng)

 
 Статистика раздачи 
Размер: 3.36 ГБ   |  Зарегистрирован: 13 янв 2018, 19:56   |   .torrent скачан: 0 раз
Сидеров: 1  [ 0 байт/сек ]     Личеров: 0  [ 0 байт/сек ]  
  

Кровь Невинных / Невинная кровь / Innocent Blood (Джон Лэндис / John Landis) [1992, США, ужасы, триллер, криминал, BDRip-AVC] [Uncut] MVO (НТВ,ТВ3) + DVO + AVO (Гаврилов,Живов) + Original Eng + Sub (Rus, Eng)

Сообщение Nakazhu » 13 янв 2018, 19:56

Кровь Невинных / Невинная кровь / Innocent Blood

Страна: США
Жанр: ужасы, триллер, криминал
Год выпуска: 1992
Продолжительность: 01:54:59
Перевод: Профессиональный (многоголосый закадровый) НТВ
Перевод 2: Профессиональный (многоголосый закадровый) ТВ3
Перевод 3: Профессиональный (двухголосый закадровый)
Перевод 4: Авторский (одноголосый закадровый) А.Гаврилов
Перевод 5: Авторский (одноголосый закадровый) Ю.Живов
Субтитры: русские форсированные (на места без перевода), английские, английские SDH
Оригинальная аудиодорожка: английский
Режиссер: Джон Лэндис / John Landis
В ролях: Анн Парийо, Роберт Лоджа, Энтони ЛаПалья, Дэвид Провэл, Чазз Пальминтери, Луис Гусман, Анджела Бассетт, Илэйн Кэйган, Рокко Систо, Лео Берместер, Фрэнк Оз, Дарио Ардженто, Линни Куигли, Тони Сирико, Ким Коутс, Маршалл Белл, Дон Риклз, Рон Томас, Том Савини
Описание: Когда ты одинока целую вечность, - говорит симпатичная героиня (Парийо), - то становишься очень разборчивой в еде и сексе". Девушка эта вампирша. Она поужинала гангстером-мафиози, пожалев при этом парня с грустными глазами по имени Джо (Лапалья), который, между прочим, был секретным агентом ФБР, проникшим в преступную семью Салли-Акулы (Лоджа). Ее следующей жертвой становится сам Салли-Акула, успевший всадить ей две пули в живот. Кровавое получилось свидание. У Джо сорвался арест, а его бывшие "друзья" по банде поклялись его убить. Что делать с этими странными убийствами, при которых тела не остывают, а нагреваются, куда-то пропадает кровь, а паталогоанатом боится даже говорить. После того, как кровавая красавица в обличии вампирши предупреждает Джо, чтобы он не лез к ней, у него более не остается сомнений. А в морге оживает труп Салли-Акулы.
Сэмпл: http://sendfile.su/1391274

Качество видео: BDRip-AVC (Кровь Невинных 1992 BDRemux 1080p[Uncut])
Формат видео: MKV
Видео: x264, 1088x612 (16:9) 23,976 fps, ~2832 kbps, 0,177 bit/pixel
Аудио 1: 48 kHz, AC3 Dolby Digital, 2/0 (L,R), ~224 kbps avg | НТВ
Аудио 2: 48 kHz, AC3 Dolby Digital, 2/0 (L,R), ~224 kbps avg | TB3
Аудио 3: 48 kHz, AC3 Dolby Digital, 2/0 (L,R), ~224 kbps avg | Английский
---------------------------------------отдельно---------------------------------------------------
Аудио 4: 48 kHz, AC3 Dolby Digital, 2/0 (L,R), ~224 kbps avg | DVO
Аудио 5: 48 kHz, AC3 Dolby Digital, 2/0 (L,R), ~224 kbps avg | Гаврилов
Аудио 5: 48 kHz, AC3 Dolby Digital, 2/0 (L,R), ~224 kbps avg | Живов
Формат субтитров: softsub (SRT)
General
Unique ID : 257040988171285049645625889789058612199 (0xC1604B29B9271BB4C95D1AE101F5FBE7)
Format : Matroska
Format version : Version 4 / Version 2
File size : 2.82 GiB
Duration : 1h 54mn
Overall bit rate : 3 506 Kbps
Encoded date : UTC 2018-01-13 14:07:12
Writing application : mkvmerge v19.0.0 ('Brave Captain') 64-bit
Writing library : libebml v1.3.5 + libmatroska v1.4.8
Video #1
ID : 1
Format : AVC
Format/Info : Advanced Video Codec
Format profile : High@L4.1
Format settings, CABAC : Yes
Format settings, ReFrames : 10 frames
Codec ID : V_MPEG4/ISO/AVC
Duration : 1h 54mn
Bit rate : 2 832 Kbps
Width : 1 088 pixels
Height : 612 pixels
Display aspect ratio : 16:9
Frame rate mode : Constant
Frame rate : 23.976 (24000/1001) fps
Color space : YUV
Chroma subsampling : 4:2:0
Bit depth : 8 bits
Scan type : Progressive
Bits/(Pixel*Frame) : 0.177
Stream size : 2.27 GiB (81%)
Writing library : x264 core 152 r2851 ba24899
Encoding settings : cabac=1 / ref=10 / deblock=1:-3:-2 / analyse=0x3:0x133 / me=umh / subme=10 / psy=1 / psy_rd=1.00:0.00 / mixed_ref=1 / me_range=32 / chroma_me=1 / trellis=2 / 8x8dct=1 / cqm=0 / deadzone=21,11 / fast_pskip=0 / chroma_qp_offset=-2 / threads=6 / lookahead_threads=1 / sliced_threads=0 / nr=0 / decimate=1 / interlaced=0 / bluray_compat=0 / constrained_intra=0 / bframes=14 / b_pyramid=2 / b_adapt=2 / b_bias=0 / direct=1 / weightb=1 / open_gop=0 / weightp=2 / keyint=250 / keyint_min=23 / scenecut=40 / intra_refresh=0 / rc=crf / mbtree=0 / crf=20.0 / qcomp=0.65 / qpmin=0 / qpmax=69 / qpstep=4 / ip_ratio=1.40 / pb_ratio=1.30 / aq=3:0.90
Language : English
Default : Yes
Forced : No
Audio #2
ID : 2
Format : AC-3
Format/Info : Audio Coding 3
Mode extension : CM (complete main)
Format settings, Endianness : Big
Codec ID : A_AC3
Duration : 1h 54mn
Bit rate mode : Constant
Bit rate : 224 Kbps
Channel(s) : 2 channels
Channel positions : Front: L R
Sampling rate : 48.0 KHz
Frame rate : 31.250 fps (1536 spf)
Compression mode : Lossy
Stream size : 184 MiB (6%)
Title : MVO HTB
Language : Russian
Default : No
Forced : No
Audio #3
ID : 3
Format : AC-3
Format/Info : Audio Coding 3
Mode extension : CM (complete main)
Format settings, Endianness : Big
Codec ID : A_AC3
Duration : 1h 54mn
Bit rate mode : Constant
Bit rate : 224 Kbps
Channel(s) : 2 channels
Channel positions : Front: L R
Sampling rate : 48.0 KHz
Frame rate : 31.250 fps (1536 spf)
Compression mode : Lossy
Stream size : 184 MiB (6%)
Title : MVO TB3
Language : Russian
Default : No
Forced : No
Audio #4
ID : 4
Format : AC-3
Format/Info : Audio Coding 3
Mode extension : CM (complete main)
Format settings, Endianness : Big
Codec ID : A_AC3
Duration : 1h 54mn
Bit rate mode : Constant
Bit rate : 224 Kbps
Channel(s) : 2 channels
Channel positions : Front: L R
Sampling rate : 48.0 KHz
Frame rate : 31.250 fps (1536 spf)
Compression mode : Lossy
Stream size : 184 MiB (6%)
Language : English
Default : Yes
Forced : No
Text #5
ID : 5
Format : UTF-8
Codec ID : S_TEXT/UTF8
Codec ID/Info : UTF-8 Plain Text
Duration : 11mn 48s
Bit rate : 8 bps
Count of elements : 20
Stream size : 772 Bytes (0%)
Title : FORCE
Language : Russian
Default : Yes
Forced : Yes
Text #6
ID : 6
Format : UTF-8
Codec ID : S_TEXT/UTF8
Codec ID/Info : UTF-8 Plain Text
Duration : 1h 54mn
Bit rate : 38 bps
Count of elements : 1332
Stream size : 32.0 KiB (0%)
Language : English
Default : No
Forced : No
Text #7
ID : 7
Format : UTF-8
Codec ID : S_TEXT/UTF8
Codec ID/Info : UTF-8 Plain Text
Duration : 1h 54mn
Bit rate : 39 bps
Count of elements : 1426
Stream size : 33.3 KiB (0%)
Title : SDH
Language : English
Default : No
Forced : No
raw [info]: 1088x612p 1:1 @ 24000/1001 fps (cfr)
x264 [info]: using SAR=1/1
x264 [info]: using cpu capabilities: MMX2 SSE2Fast SSSE3 SSE4.2 AVX XOP FMA3 BMI1
x264 [info]: profile High, level 4.1
x264 [info]: frame I:1230 Avg QP:17.57 size: 66231
x264 [info]: frame P:29779 Avg QP:19.06 size: 28482
x264 [info]: frame B:134414 Avg QP:21.46 size: 11252
x264 [info]: consecutive B-frames: 1.2% 1.0% 3.9% 9.4% 13.1% 50.2% 7.1% 2.7% 2.5% 1.8% 2.0% 2.2% 1.3% 0.8% 0.7%
x264 [info]: mb I I16..4: 4.2% 85.3% 10.5%
x264 [info]: mb P I16..4: 0.5% 9.7% 1.1% P16..4: 43.3% 25.9% 15.2% 0.2% 0.0% skip: 4.1%
x264 [info]: mb B I16..4: 0.0% 0.8% 0.1% B16..8: 46.5% 13.3% 2.9% direct: 5.5% skip:30.9% L0:49.4% L1:44.6% BI: 5.9%
x264 [info]: 8x8 transform intra:85.5% inter:70.6%
x264 [info]: coded y,uvDC,uvAC intra: 90.5% 85.2% 60.4% inter: 30.8% 22.5% 3.0%
x264 [info]: i16 v,h,dc,p: 44% 13% 7% 36%
x264 [info]: i8 v,h,dc,ddl,ddr,vr,hd,vl,hu: 13% 6% 5% 10% 15% 15% 13% 12% 11%
x264 [info]: i4 v,h,dc,ddl,ddr,vr,hd,vl,hu: 26% 5% 2% 9% 13% 14% 11% 11% 9%
x264 [info]: i8c dc,h,v,p: 38% 22% 21% 18%
x264 [info]: Weighted P-Frames: Y:13.1% UV:8.6%
x264 [info]: ref P L0: 39.6% 9.0% 18.7% 8.3% 6.9% 5.1% 4.6% 2.7% 2.5% 2.2% 0.3% 0.0%
x264 [info]: ref B L0: 59.3% 15.1% 9.3% 5.0% 3.8% 3.2% 2.6% 1.1% 0.4%
x264 [info]: ref B L1: 90.0% 10.0%
x264 [info]: kb/s:2831.62
x264 [total]: encoded 165423 frames, 5.05 fps, 2831.62 kb/s

 
Не забывайте говорить Спасибо. Не уходите с раздачи!   
Торрент: Зарегистрирован [13 янв 2018, 19:56] Для скачивания .torrent
необходима регистрация
Или скачать с помощью
MediaGet
Статус:
Проверен
 
.torrent скачан: 0 раз
Хэш: 57fad8f2269a8732f3100ed1eb40b7ff66179170
Размер: 3.36 ГБ (3 603 125 537 байт)
Стать Автором раздачи
 
 
Раздал: 0 байт
Скачал: 0 байт
Ратио: Inf.
Сообщения: 377972
Зарегистрирован: 17 апр 2014, 13:57


Вернуться в Зарубежные фильмы 1991-2000

Кто сейчас на конференции

Сейчас эту тему просматривают: нет зарегистрированных пользователей и гости: 1

Ресурс не предоставляет электронные версии произведений, а занимается лишь коллекционированием и каталогизацией ссылок, присылаемых и публикуемых на форуме нашими читателями. Если вы являетесь правообладателем какого-либо представленного материала и не желаете чтобы ссылка на него находилась в нашем каталоге, свяжитесь с нами и мы незамедлительно удалим её. Файлы для обмена на трекере предоставлены пользователями сайта, и администрация не несёт ответственности за их содержание. Просьба не заливать файлы, защищенные авторскими правами, а также файлы нелегального содержания!
cron