Теория большого взрыва / The Big Bang Theory / Сезон: 11 / Серии: 1-2 из 24 (Марк Сендроуски, Питер Чакос, Энтони Джозеф Рич) [2017, США, ситком, WEB-DL 1080p] VO (Кураж-Бамбей по заказу Paramount Comedy) + Original

 
 Статистика раздачи 
Размер: 3.83 ГБ   |  Зарегистрирован: 13 янв 2018, 19:57   |   .torrent скачан: 0 раз
Сидеров: 1  [ 0 байт/сек ]     Личеров: 0  [ 0 байт/сек ]  
  

Теория большого взрыва / The Big Bang Theory / Сезон: 11 / Серии: 1-2 из 24 (Марк Сендроуски, Питер Чакос, Энтони Джозеф Рич) [2017, США, ситком, WEB-DL 1080p] VO (Кураж-Бамбей по заказу Paramount Comedy) + Original

Сообщение Nakazhu » 13 янв 2018, 19:57

Теория большого взрыва / The Big Bang Theory
Год выпуска: 2017
Страна: США
Жанр: ситком
Продолжительность: 00:22:00
Перевод: Профессиональный (одноголосый закадровый) Кураж-Бамбей по заказу Paramount Comedy
Режиссёр: Марк Сендроуски, Питер Чакос, Энтони Джозеф Рич
В ролях: Джонни Галэки , Джим Парсонс , Кейли Куоко , Саймон Хелберг , Кунал Нэйэр , Мелисса Рауш , Майем Биэлик
Описание: The Big Bang Theory — это, уже ставший классическим, ситком от телеканала CBS, который вышел на экраны 24 сентября 2007 года. Его популярность можно сравнить, разве что, с нестареющей классикой Друзей, который тоже шел 10 лет и, наверное, сложно найти человека, который про него не слышал. The Big Bang Theory также снимается в студии, где присутствуют зрители компаниями Chuck Lorre Productions и Warner Bros. Television.
Можно сказать, что именно это шоу положило начало моде на «гиков» — умных парней со сложным детством и проблемами в общении со сверстниками, которые закрывались в своих комнатах и гаражах, мастерили домашние ядерные реакторы и зачитывались комиксами от Marvel или DC. У них очень сложные отношения с девушками, но это и есть причина того, что такие истории называются ситком (комедия положений).
Главные персонажи — это два очень умных физика, Леонард и Шелдон, которые живут вместе, все знают про атомы и физику частиц, но очень мало смыслят в обычной жизни. У них есть такие же «ущербные» друзья-товарищи — озабоченый инженер Говард Воловитц и астрофизик из Индии Раджеш Кутрапали, который напрочь теряет дар речи при виде девушки. На всё это сверху добавляем разбитную красотку Пенни, которая живёт напротив Шелдона с Леонардом. Она учит их жизни, они пытаются её воспитывать. Что в итоге получается — смотрите в сериале!
Доп. информация:
работа со звуком: serial_M
запись звука: Beer kolesik Drinkers
Сэмпл: http://multi-up.com/1182164
Качество: WEB-DL 1080p
Контейнер: MKV
Видео: 1920×1080 at 23.976 fps, MPEG-4 AVC, ~11,3 Mbps avg
Аудио 1: Russian: 48 kHz, AC3, 3/2 (L,C,R,l,r) + LFE ch, ~640.00 kbps avg |Одноголосый закадровый, Кураж-Бамбей по заказу Paramount Comedy|
Аудио 2: English: 48 kHz, E-AC3, 3/2 (L,C,R,l,r) + LFE ch, ~640.00 kbps avg
Субтитры: English (SDH)
Реклама: нет
General
Unique ID : 221736578488978553602082557046858372098 (0xA6D0E9607055C797BDE9E077B67AD402)
Complete name : E:\Films\The.Big.Bang.Theory.S11.WEB-DL.1080p.Rus.Eng\The.Big.Bang.Theory.S11E01.WEB-DL.1080p.Rus.Eng.mkv
Format : Matroska
Format version : Version 4 / Version 2
File size : 1.66 GiB
Duration : 20 min 36 s
Overall bit rate mode : Variable
Overall bit rate : 11.5 Mb/s
Movie name : The Big Bang Theory 11x01 (2017) - Release serial_M
Encoded date : UTC 2018-01-05 11:28:50
Writing application : mkvmerge v18.0.0 ('Apricity') 64-bit
Writing library : libebml v1.3.5 + libmatroska v1.4.8
Video
ID : 1
Format : AVC
Format/Info : Advanced Video Codec
Format profile : High@L4
Format settings, CABAC : Yes
Format settings, RefFrames : 4 frames
Codec ID : V_MPEG4/ISO/AVC
Duration : 20 min 36 s
Bit rate mode : Variable
Bit rate : 10.3 Mb/s
Maximum bit rate : 15.0 Mb/s
Width : 1 920 pixels
Height : 1 080 pixels
Display aspect ratio : 16:9
Frame rate mode : Constant
Frame rate : 23.976 (24000/1001) FPS
Color space : YUV
Chroma subsampling : 4:2:0
Bit depth : 8 bits
Scan type : Progressive
Bits/(Pixel*Frame) : 0.206
Stream size : 1.48 GiB (89%)
Title : The Big Bang Theory 11x01 (2017) - Release serial_M
Language : English
Default : Yes
Forced : No
Color range : Limited
Color primaries : BT.709
Transfer characteristics : BT.709
Matrix coefficients : BT.709
Audio #1
ID : 2
Format : AC-3
Format/Info : Audio Coding 3
Format settings, Endianness : Big
Codec ID : A_AC3
Duration : 20 min 36 s
Bit rate mode : Constant
Bit rate : 640 kb/s
Channel(s) : 6 channels
Channel positions : Front: L C R, Side: L R, LFE
Sampling rate : 48.0 kHz
Frame rate : 31.250 FPS (1536 SPF)
Bit depth : 16 bits
Compression mode : Lossy
Stream size : 94.3 MiB (6%)
Title : Paramount Comedy
Language : Russian
Service kind : Complete Main
Default : Yes
Forced : No
Audio #2
ID : 3
Format : E-AC-3
Format/Info : Enhanced Audio Coding 3
Format settings, Endianness : Big
Codec ID : A_EAC3
Duration : 20 min 36 s
Bit rate mode : Constant
Bit rate : 640 kb/s
Channel(s) : 6 channels
Channel positions : Front: L C R, Side: L R, LFE
Sampling rate : 48.0 kHz
Frame rate : 187.500 FPS (256 SPF)
Compression mode : Lossy
Stream size : 94.3 MiB (6%)
Title : English
Language : English
Service kind : Complete Main
Default : No
Forced : No
Text
ID : 4
Format : UTF-8
Codec ID : S_TEXT/UTF8
Codec ID/Info : UTF-8 Plain Text
Duration : 20 min 1 s
Bit rate : 95 b/s
Count of elements : 463
Stream size : 14.0 KiB (0%)
Title : eng-sub
Language : English
Default : No
Forced : No
Внимание! Раздача ведётся путём добавления новых серий; при каждом добавлении создаётся новый торрент. Чтобы начать докачку новой серии, пользователям необходимо сделать следующее:
(1) остановить скачивание,
(2) удалить старый торрент у себя из клиента (старые серии удалять не надо),
(3) скачать новый торрент и запустить его у себя в клиенте вместо старого, при этом указать клиенту путь в старую папку куда и должно происходить скачивание новых серий.
Ваш клиент при этом должен произвести хеширование (проверку) старой папки (если не производит сам - помогите ему сделать это), и будет докачивать только те серии которых у вас ещё нет. Старые серии при этом не удаляются, а продолжают раздаваться!
Eсли вы уже удалили старые серии, то предотвратить повторную закачку старых серий можно, отжав галочку в соответствующих местах при запуске нового торрента. По возможности, желательно не удалять старые серии как можно дольше чтобы релизёр не столько продолжал раздавать старые серии, а смог сконцентрироваться на новых.
Предыдущие и альтернативные раздачи
 
Не забывайте говорить Спасибо. Не уходите с раздачи!   
Торрент: Зарегистрирован [13 янв 2018, 19:57] Для скачивания .torrent
необходима регистрация
Или скачать с помощью
MediaGet
Статус:
Проверен
 
.torrent скачан: 0 раз
Хэш: 32a55ee8b6f2f78f9d247cecb43ed5b5421fae5b
Размер: 3.83 ГБ (4 110 497 798 байт)
Стать Автором раздачи
 
 
Раздал: 0 байт
Скачал: 0 байт
Ратио: Inf.
Сообщения: 377972
Зарегистрирован: 17 апр 2014, 13:57


  • Похожие торренты
    Ответы
    Просмотры
    Последнее сообщение

Вернуться в Зарубежные сериалы (HD Video)

Кто сейчас на конференции

Сейчас эту тему просматривают: нет зарегистрированных пользователей и гости: 1

Ресурс не предоставляет электронные версии произведений, а занимается лишь коллекционированием и каталогизацией ссылок, присылаемых и публикуемых на форуме нашими читателями. Если вы являетесь правообладателем какого-либо представленного материала и не желаете чтобы ссылка на него находилась в нашем каталоге, свяжитесь с нами и мы незамедлительно удалим её. Файлы для обмена на трекере предоставлены пользователями сайта, и администрация не несёт ответственности за их содержание. Просьба не заливать файлы, защищенные авторскими правами, а также файлы нелегального содержания!
cron