Киноистории Глеба Скороходова (11 выпусков) [2002, Документальный, биография, искусство, кинематограф, DVB]

 
 Статистика раздачи 
Размер: 1.21 ГБ   |  Зарегистрирован: 13 янв 2018, 23:09   |   .torrent скачан: 0 раз
Сидеров: 1  [ 0 байт/сек ]     Личеров: 0  [ 0 байт/сек ]  
  

Киноистории Глеба Скороходова (11 выпусков) [2002, Документальный, биография, искусство, кинематограф, DVB]

Сообщение Nakazhu » 13 янв 2018, 23:09

Киноистории Глеба Скороходова
Дата/Год выпуска: 2002
Страна: Россия
Жанр: Документальный, биография, искусство, кинематограф
Продолжительность: 00:09:58
Перевод: Не требуется
Русские субтитры: нет
Оригинальная аудиодорожка: русский
Телеканал: Ретро
Описание:

Киноистории Глеба Скороходова

Небольшие истории о легендарных советских актерах и фильмах
13.01.2018 _ добавил: Два билета на дневной сеанс

Сэмпл: http://multi-up.com/1182346
качество: DVB
формат: MKV
Видео: AVC, 720x576 (4:3), 25 fps, 1 411 kb/s
Аудио: RU, AAC, 48 kHz, 2 ch, 129 Kbps
Быков Леонид
Даль Олег
Два билета на дневной сеанс
Девчата
Женитьба Бальзаминова
Когда деревья были большими
Леонов Евгений
Первый троллейбус
Раппапорт Герберт
Савинова Екатерина
Служили два товарища
Код: Выделить всё
General
Unique ID                                : 66337426496027587362429857080098582214 (0x31E81FA50D0F8C4ABC8ECCA6CABE6EC6)
Complete name                            : C:\Киноистории Глеба Скороходова\Даль Олег.mkv
Format                                   : Matroska
Format version                           : Version 4 / Version 2
File size                                : 110 MiB
Duration                                 : 9 min 58 s
Overall bit rate                         : 1 542 kb/s
Encoded date                             : UTC 2018-01-07 09:58:13
Writing application                      : mkvmerge v19.0.0 ('Brave Captain') 32-bit
Writing library                          : libebml v1.3.5 + libmatroska v1.4.8
Video
ID                                       : 1
Format                                   : AVC
Format/Info                              : Advanced Video Codec
Format profile                           : High@L3
Format settings                          : CABAC / 1 Ref Frames
Format settings, CABAC                   : Yes
Format settings, RefFrames               : 1 frame
Codec ID                                 : V_MPEG4/ISO/AVC
Duration                                 : 9 min 58 s
Bit rate                                 : 1 411 kb/s
Width                                    : 720 pixels
Height                                   : 576 pixels
Display aspect ratio                     : 4:3
Original display aspect ratio            : 4:3
Frame rate mode                          : Constant
Frame rate                               : 25.000 FPS
Standard                                 : PAL
Color space                              : YUV
Chroma subsampling                       : 4:2:0
Bit depth                                : 8 bits
Scan type                                : Progressive
Bits/(Pixel*Frame)                       : 0.136
Stream size                              : 101 MiB (91%)
Default                                  : Yes
Forced                                   : No
Audio
ID                                       : 2
Format                                   : AAC
Format/Info                              : Advanced Audio Codec
Format profile                           : LC
Codec ID                                 : A_AAC-2
Duration                                 : 9 min 58 s
Bit rate                                 : 129 kb/s
Channel(s)                               : 2 channels
Channel positions                        : Front: L R
Sampling rate                            : 48.0 kHz
Frame rate                               : 46.875 FPS (1024 SPF)
Compression mode                         : Lossy
Stream size                              : 9.18 MiB (8%)
Language                                 : Russian
Default                                  : Yes
Forced                                   : No
 
Не забывайте говорить Спасибо. Не уходите с раздачи!   
Торрент: Зарегистрирован [13 янв 2018, 23:09] Для скачивания .torrent
необходима регистрация
Или скачать с помощью
MediaGet
Статус:
Проверен
 
.torrent скачан: 0 раз
Хэш: 0bb2869a1a3a6f0e139ac2fd09a3e729cf4fc64d
Размер: 1.21 ГБ (1 299 109 300 байт)
Стать Автором раздачи
 
 
Раздал: 0 байт
Скачал: 0 байт
Ратио: Inf.
Сообщения: 378386
Зарегистрирован: 17 апр 2014, 13:57


Вернуться в Документальные фильмы и телепередачи

Кто сейчас на конференции

Сейчас эту тему просматривают: нет зарегистрированных пользователей и гости: 1

Ресурс не предоставляет электронные версии произведений, а занимается лишь коллекционированием и каталогизацией ссылок, присылаемых и публикуемых на форуме нашими читателями. Если вы являетесь правообладателем какого-либо представленного материала и не желаете чтобы ссылка на него находилась в нашем каталоге, свяжитесь с нами и мы незамедлительно удалим её. Файлы для обмена на трекере предоставлены пользователями сайта, и администрация не несёт ответственности за их содержание. Просьба не заливать файлы, защищенные авторскими правами, а также файлы нелегального содержания!
cron