Лапландская одиссея 3 / Napapiirin sankarit 3 / Lapland Odyssey 3 (Тийна Люми / Tiina Lymi) [2017, Финляндия, комедия, приключения, спорт, DVDRip] + Sub Rus (porcellus) + Original Fin

 
 Статистика раздачи 
Размер: 1.46 ГБ   |  Зарегистрирован: 14 янв 2018, 02:08   |   .torrent скачан: 0 раз
Сидеров: 1  [ 0 байт/сек ]     Личеров: 0  [ 0 байт/сек ]  
  

Лапландская одиссея 3 / Napapiirin sankarit 3 / Lapland Odyssey 3 (Тийна Люми / Tiina Lymi) [2017, Финляндия, комедия, приключения, спорт, DVDRip] + Sub Rus (porcellus) + Original Fin

Сообщение Nakazhu » 14 янв 2018, 02:08

Лапландская одиссея 3 / Napapiirin sankarit 3 / Lapland Odyssey 3
Страна: Финляндия
Жанр: комедия, приключения, спорт
Год выпуска: 2017
Продолжительность: 01:43:22
Перевод: субтитры - porcellus
Субтитры: русские
Оригинальная аудиодорожка: финская
Режиссер: Тийна Люми / Tiina Lymi
В ролях: Юсси Ватанен, Кари Вяянянен, Тийна Люми, Томми Эронен, Хайди Линден, Памела Тола, Кари Кетонен, Танели Мякеля, Яни Воланен, Яркко Ниеми
Описание: Янне переживает душевный кризис, и начитавшись Паоло Коэльо, решает отправиться за просветлением в путешествие к горам Лапландии. Но его мечтам об уединении не суждено сбыться, за ним увязались закадычные дружки Юлиус и Тапио. Преодолевая многочисленные преграды, прихватив за компанию туристку-натуристку, отважная троица продвигалась к намеченной цели. Тем временем Инари вместе с дружным коллективом местной жилконторы отправилась на корпоративный турнир по болотному футболу. Она даже не догадывалась, что веселое спортивное состязание окажется богатым на встречи со старыми приятелями и увлекательные, но порой опасные приключения.

Сэмпл: http://multi-up.com/1183127
Качество видео: DVDRip
Формат видео: AVI
Видео: 720x304 (2.37:1), 25 fps, XviD build 50 ~1823 kbps avg, 0.33 bit/pixel
Аудио: 48 kHz, AC3 Dolby Digital, 2/0 (L,R) ch, ~192 kbps
Формат субтитров: softsub (SRT)
Код: Выделить всё
General
Complete name                            : H:\temp\ns3\Lapland.Odyssey.3.2017.avi
Format                                   : AVI
Format/Info                              : Audio Video Interleave
File size                                : 1.46 GiB
Duration                                 : 1 h 43 min
Overall bit rate                         : 2 026 kb/s
Writing application                      : VirtualDubMod 1.5.10.3 | www.virtualdub-fr.org || (build 2550/release)
Writing library                          : VirtualDubMod build 2550/release
Video
ID                                       : 0
Format                                   : MPEG-4 Visual
Format profile                           : Advanced Simple@L5
Format settings, BVOP                    : 1
Format settings, QPel                    : No
Format settings, GMC                     : No warppoints
Format settings, Matrix                  : Default (MPEG)
Codec ID                                 : XVID
Codec ID/Hint                            : XviD
Duration                                 : 1 h 43 min
Bit rate                                 : 1 824 kb/s
Width                                    : 720 pixels
Height                                   : 304 pixels
Display aspect ratio                     : 2.35:1
Frame rate                               : 25.000 FPS
Color space                              : YUV
Chroma subsampling                       : 4:2:0
Bit depth                                : 8 bits
Scan type                                : Progressive
Compression mode                         : Lossy
Bits/(Pixel*Frame)                       : 0.333
Stream size                              : 1.32 GiB (90%)
Writing library                          : XviD 1.2.1 (UTC 2008-12-04)
Audio
ID                                       : 1
Format                                   : AC-3
Format/Info                              : Audio Coding 3
Mode extension                           : CM (complete main)
Format settings, Endianness              : Big
Codec ID                                 : 2000
Duration                                 : 1 h 43 min
Bit rate mode                            : Constant
Bit rate                                 : 192 kb/s
Channel(s)                               : 2 channels
Channel positions                        : Front: L R
Sampling rate                            : 48.0 kHz
Frame rate                               : 31.250 FPS (1536 spf)
Bit depth                                : 16 bits
Compression mode                         : Lossy
Stream size                              : 142 MiB (9%)
Alignment                                : Split accross interleaves
Interleave, duration                     : 40  ms (1.00 video frame)
Interleave, preload duration             : 500  ms
3
00:00:37,521 --> 00:00:41,651
Я хочу домой!
4
00:00:49,075 --> 00:00:51,744
Инари!
5
00:00:54,538 --> 00:00:58,376
<i>За две недели до этого</i>
6
00:00:58,459 --> 00:01:03,172
<i>Несмотря на то, что Капу был
одним из моих самых близких друзей,</i>
7
00:01:03,255 --> 00:01:06,759
последние несколько лет мы виделись нечасто.
8
00:01:06,842 --> 00:01:09,387
Он все время путешествовал.
9
00:01:09,470 --> 00:01:13,891
То немногое, что я слышал о нем,
будило во мне зависть.
10
00:01:15,059 --> 00:01:18,354
Капу наконец-то обрел
счастье в жизни,
11
00:01:18,437 --> 00:01:22,817
которое недоступно мне и вероятно,
всем в этой комнате.
12
00:01:22,900 --> 00:01:28,114
Капу нашел в себе силы заниматься тем,
о чем он всегда мечтал.
13
00:01:30,491 --> 00:01:34,704
Перед тем, как мы закончим наш земной путь,
14
00:01:34,787 --> 00:01:38,290
многие ли из нас уверенно скажут,
15
00:01:38,374 --> 00:01:42,712
что их жизнь прошла полнокровно,
а не пролетела впустую?
16
00:01:42,795 --> 00:01:48,175
Мы день за днем повторяем наши
бессмысленные ритуалы.
17
00:01:49,093 --> 00:01:55,766
Мы не бывали нигде, дальше
заправочной станции на дороге в Муонио.
18
00:01:55,850 --> 00:02:00,187
Мы с утра до вечера ковыряемся в одном и том же дерьме...
 
Не забывайте говорить Спасибо. Не уходите с раздачи!   
Торрент: Зарегистрирован [14 янв 2018, 02:08] Для скачивания .torrent
необходима регистрация
Или скачать с помощью
MediaGet
Статус:
Проверен
 
.torrent скачан: 0 раз
Хэш: fbf16f4960731b195516b280002c57f24618d407
Размер: 1.46 ГБ (1 570 553 819 байт)
Стать Автором раздачи
 
 
Раздал: 0 байт
Скачал: 0 байт
Ратио: Inf.
Сообщения: 377961
Зарегистрирован: 17 апр 2014, 13:57


  • Похожие торренты
    Ответы
    Просмотры
    Последнее сообщение

Вернуться в Зарубежное кино

Кто сейчас на конференции

Сейчас эту тему просматривают: нет зарегистрированных пользователей и гости: 1

Ресурс не предоставляет электронные версии произведений, а занимается лишь коллекционированием и каталогизацией ссылок, присылаемых и публикуемых на форуме нашими читателями. Если вы являетесь правообладателем какого-либо представленного материала и не желаете чтобы ссылка на него находилась в нашем каталоге, свяжитесь с нами и мы незамедлительно удалим её. Файлы для обмена на трекере предоставлены пользователями сайта, и администрация не несёт ответственности за их содержание. Просьба не заливать файлы, защищенные авторскими правами, а также файлы нелегального содержания!
cron