Последний альянс / Последний союз / The Final Alliance / Tiger Man (Марио Ди Лео / Mario Di Leo) [1990, США, ЮАР, Боевик, VHSRip] [Full Screen] AVO (Юрий Живов)

 
 Статистика раздачи 
Размер: 1.37 ГБ   |  Зарегистрирован: 14 янв 2018, 08:20   |   .torrent скачан: 0 раз
Сидеров: 1  [ 0 байт/сек ]     Личеров: 0  [ 0 байт/сек ]  
  

Последний альянс / Последний союз / The Final Alliance / Tiger Man (Марио Ди Лео / Mario Di Leo) [1990, США, ЮАР, Боевик, VHSRip] [Full Screen] AVO (Юрий Живов)

Сообщение Nakazhu » 14 янв 2018, 08:20

Последний альянс / Последний союз / The Final Alliance / Tiger Man
[Full Screen]
Страна: США, ЮАР
Жанр: Боевик
Год выпуска: 1990
Продолжительность: 01:33:43
Перевод: Авторский (одноголосый закадровый) Юрий Живов
Субтитры: нет
Режиссер: Марио Ди Лео / Mario Di Leo
В ролях: Дэвид Хассельхофф , Бо Хопкинс , Джон Сэксон , Джини Мур , Лен Спэрроухок , Карл Джонсон , Фрэнк Нотаро, Sylvano Architto , Том Хоскинс , Стид Тейлор
Описание: Вооруженная до зубов мотобанда терроризирует техасский городок. Байкеры убивают, насилуют, грабят. Но тут появляется Уилл Колтон, парень тертый и бывалый, настоящий герой. Когда-то главари банды убили его родителей, и теперь он вернулся, чтобы отомстить.
Доп. информация: Оцифровка VHS (личный архив) и получение VHSRip alenavova
Эксклюзив для rutracker.org. При размещении данного релиза на других сайтах ссылка на автора alenavova обязательна
Релиз
Сэмпл: https://yadi.sk/i/KFOcxBYo3RS2KN
Качество видео: VHSRip
Формат видео: AVI
Видео: 704x512 (1.38:1), 25 fps, XviD build 73 ~1887 kbps avg, 0.21 bit/pixel
Аудио: 48 kHz, AC3 Dolby Digital, 2/0 (L,R) ch, ~192 kbps
Код: Выделить всё
Последний союз - The Final Alliance (by alenavova).avi
Format                      : AVI
Format/Info                 : Audio Video Interleave
File size                   : 1.37 GiB
Duration                    : 1 h 33 min
Overall bit rate            : 2 089 kb/s
Movie name                  : Последний союз - The Final Alliance (by alenavova)
Director                    : by alenavova
Writing application         : VirtualDubMod 1.5.10.3 | www.virtualdub-fr.org || (build 2550/release)
Copyright                   : Edich2
Comment                     : RuTracker.org
Video
ID                          : 0
Format                      : MPEG-4 Visual
Format profile              : Advanced Simple@L5
Format settings, BVOP       : 2
Format settings, QPel       : No
Format settings, GMC        : No warppoints
Format settings, Matrix     : Custom
Codec ID                    : XVID
Codec ID/Hint               : XviD
Duration                    : 1 h 33 min
Bit rate                    : 1 888 kb/s
Width                       : 704 pixels
Height                      : 512 pixels
Display aspect ratio        : 1.375
Frame rate                  : 25.000 FPS
Color space                 : YUV
Chroma subsampling          : 4:2:0
Bit depth                   : 8 bits
Scan type                   : Progressive
Compression mode            : Lossy
Bits/(Pixel*Frame)          : 0.209
Stream size                 : 1.24 GiB (90%)
Writing library             : XviD 73
Audio
ID                          : 1
Format                      : AC-3
Format/Info                 : Audio Coding 3
Format settings, Endianness : Big
Codec ID                    : 2000
Duration                    : 1 h 33 min
Bit rate mode               : Constant
Bit rate                    : 192 kb/s
Channel(s)                  : 2 channels
Channel positions           : Front: L R
Sampling rate               : 48.0 kHz
Frame rate                  : 31.250 FPS (1536 spf)
Bit depth                   : 16 bits
Compression mode            : Lossy
Stream size                 : 129 MiB (9%)
Alignment                   : Split accross interleaves
Interleave, duration        : 40  ms (1.00 video frame)
Interleave, preload duratio : 500  ms
Service kind                : Complete Main

 
Не забывайте говорить Спасибо. Не уходите с раздачи!   
Торрент: Зарегистрирован [14 янв 2018, 08:20] Для скачивания .torrent
необходима регистрация
Или скачать с помощью
MediaGet
Статус:
Проверен
 
.torrent скачан: 0 раз
Хэш: fb7fc24a68435336f6702dcc6fea09a8805233f2
Размер: 1.37 ГБ (1 468 626 944 байт)
Стать Автором раздачи
 
 
Раздал: 0 байт
Скачал: 0 байт
Ратио: Inf.
Сообщения: 377953
Зарегистрирован: 17 апр 2014, 13:57


Вернуться в Зарубежное кино

Кто сейчас на конференции

Сейчас эту тему просматривают: нет зарегистрированных пользователей и гости: 1

Ресурс не предоставляет электронные версии произведений, а занимается лишь коллекционированием и каталогизацией ссылок, присылаемых и публикуемых на форуме нашими читателями. Если вы являетесь правообладателем какого-либо представленного материала и не желаете чтобы ссылка на него находилась в нашем каталоге, свяжитесь с нами и мы незамедлительно удалим её. Файлы для обмена на трекере предоставлены пользователями сайта, и администрация не несёт ответственности за их содержание. Просьба не заливать файлы, защищенные авторскими правами, а также файлы нелегального содержания!
cron