[ATV 3] Проклятые / Damnation / Сезон 1, Эпизод 1-9 (12) (Адам Кэйн, Род Лури, Эва Сёрхёуг) [2017, США, драма, криминал, вестерн , WEB-DL HD (1080p)] MVO (Lostfilm) + Original + Sub (eng)

 
 Статистика раздачи 
Размер: 16.47 ГБ   |  Зарегистрирован: 14 янв 2018, 09:07   |   .torrent скачан: 0 раз
Сидеров: 1  [ 0 байт/сек ]     Личеров: 0  [ 0 байт/сек ]  
  

[ATV 3] Проклятые / Damnation / Сезон 1, Эпизод 1-9 (12) (Адам Кэйн, Род Лури, Эва Сёрхёуг) [2017, США, драма, криминал, вестерн , WEB-DL HD (1080p)] MVO (Lostfilm) + Original + Sub (eng)

Сообщение Nakazhu » 14 янв 2018, 09:07

Проклятые / Damnation


Год выпуска: 2017
Страна: США
Жанр: драма, криминал, вестерн
Продолжительность серии: 55 мин.
Перевод: Многоголосый закадровый перевод
Оригинальная аудиодорожка: Есть
Cубтитры: Английские
Режиссёр: Адам Кэйн, Род Лури, Эва Сёрхёуг
Сценарий: Тони Тост, Джулия Коэн, Майкл Д. Фуллер
Продюсер: Адам Кэйн, Тони Тост, Назрин Чадхури
Оператор: Пьер Джодоин, Джиллз Натгенс
Композитор: Адам Тейлор
Художник: Расселл Барнс, Хериана Сан Хуан, Пол Хили
Монтаж: Кертис Турбер, Адам Блюминг
В ролях: Кристофер Хейердал, Тич Грант, Киллиан Скотт, Логан Маршалл-Грин, Сара Джонс, Арнольд Пиннок, Дэн Донохью, Роэн Мид, Дэвид Нэйсом, Вики Ламберт
Описание:
Действие разворачивается в маленьком городке в Айове в 1930-е. Туда практически одновременно прибывают молодой пастор, призывающий бедноту выступить против богатеев, и лихой штрейкбрехер, нанятый этими самыми богачами, чтобы помешать планам пастора. Никто в городе не догадывается, что эти двое — родные братья.
Качество исходника: WEB-DL 1080p
Качество: WEB-DL
Тип: 1080p
Контейнер: m4v
Видео: 1920 x 1080 at 23.976 fps, MPEG-4 AVC, ~5000 kbps avg
Аудио: Lostfilm - Русский - Закадровый перевод: MPEG-4 AAC LC, 2.0, ~ 160 kbps, 48000 Hz / AC-3, 5.1, 384 kbps, 48000 Hz
Аудио: Английский (США): MPEG-4 AAC LC, 2.0, ~ 160 kbps, 48000 Hz / AC-3, 5.1, 384 kbps, 48000 Hz
Субтитры: Английский - SDH для глухих: TX3G
Субтитры: Английский - скрытые субтитры: CEA-608
Проклятые, Сезон 1

Damnation, Season 1
Eng: When a farmer's strike led by local preacher Seth Davenport escalates, a vicious man from his past named Creeley Turner is sent to Holden, Iowa to restore order.
Eng: As Seth and the farmers ward off the treacherous Black Legion vigilante group, Creeley works to learn more about his brother's new life and the woman he shares it with.
Eng: When the local farms face foreclosure, Seth and Amelia must find a way to win them back. Creeley and Bessie run afoul of the Black Legion.
Eng: Negotiations commence between the farmers and the bank. But things turn bloody when Creeley divides the farmers.
Eng: When a traveling carnival comes to Holden, a collection of new faces put Seth and Creeley on their toes, but it's a friend from the past that truly shakes things up.
Eng: With banker Calvin Rumple run out of town, the local bank presents an unexpected opportunity for Seth and Lew.
Eng: Creeley meets his master on an exclusive hunting retreat, but finds there is more than one game at play here. Seth infiltrates a nearby factory.
Eng: When Bessie discovers the grand industrial plans for Holden, Seth and Amelia must decide whether to protect her from the Black Legion.
Eng: Seth and the farmers take on the Black Legion with help from unlikely allies.
Код:
Код: Выделить всё
Name: Sam Riley's Body
Artist: Damnation
Album Artist: Damnation
Album: Damnation, Season 1
Media Kind: 10
HD Video:2
Genre: Drama
Release Date: 2017-11-07T08:00:00Z
Track #: 1/9
Disk #: 1/1
TV Show: Damnation
TV Episode #: 1
TV Network: USA
TV Episode ID: H7901
TV Season: 1
Description: When a farmer's strike led by local preacher Seth Davenport escalates, a vicious man from his past
Long Description: When a farmer's strike led by local preacher Seth Davenport escalates, a vicious man from his past named Creeley Turner is sent to Holden, Iowa to restore order.
Series Description: An epic saga about the secret history of the 1930s American heartland, DAMNATION centers on the mythic conflict and bloody struggle between big money and the downtrodden, God and greed, charlatans and prophets. The pilot introduces Seth Davenport (Killian Scott, “71”), a man masquerading as a small town Iowa preacher in the hopes of starting a full-blown insurrection against the status quo.  Focused on his mission, he is unaware that an industrialist tycoon has hired a professional strikebreaker named Creeley Turner (Logan Marshall-Green, “Quarry”) to stop the uprising by any means necessary.  But unbeknownst to those around them, these two men already share a secret bloody past.
Content Rating: 0
Copyright: В© 2017 Universal Cable Productions LLC ALL RIGHTS RESERVED
content ID: 1290374383
artist ID: 1286606220
playlist ID: 1286606221
genre ID: 4001
XID: NBCUniversal:vendor_id:NBC_DMNTN_H7901
iTunes Country: 143441
Sort Name: Sam Riley's Body
Sort Artist: Damnation
Sort Album: Damnation, Season 1

Код:
Код: Выделить всё
General
Complete name                            : 01 Sam Riley's Body (1080p HD).m4v
Format                                   : MPEG-4
Codec ID                                 : M4V  (M4V /mp42/isom)
File size                                : 2.38 GiB
Duration                                 : 54 min 40 s
Overall bit rate mode                    : Variable
Overall bit rate                         : 6 239 kb/s
Collection                               : Damnation
Season                                   : 1
Album                                    : Damnation, Season 1
Album/Sorted by                          : Damnation, Season 1
Album/Performer                          : Damnation
Part                                     : 1
Part/Position                            : 1
Part/Total                               : 1
Track name                               : Sam Riley's Body
Track name/Position                      : 1
Track name/Total                         : 12
Performer                                : Damnation
Performer/Sorted by                      : Damnation
Genre                                    : Drama
ContentType                              : TV Show
Description                              : When a farmer's strike led by local preacher Seth Davenport escalates, a vicious man from his past / An epic saga about the secret history of the 1930s American heartland, DAMNATION centers on the mythic conflict and bloody struggle between big money and the downtrodden, God and greed, charlatans and prophets. The pilot introduces Seth Davenport (Killian Scott, “71”), a man masquerading as a small town Iowa preacher in the hopes of starting a full-blown insurrection against the status quo.  Focused on his mission, he is unaware that an industrialist tycoon has hired a professional strikebreaker named Creeley Turner (Logan Marshall-Green, “Quarry”) to stop the uprising by any means necessary.  But unbeknownst to those around them, these two men already share a secret bloody past.
Recorded date                            : UTC 2017-11-07 08:00:00
Encoded date                             : UTC 2017-11-08 00:15:40
Tagged date                              : UTC 2017-11-08 00:15:46
Copyright                                : В© 2017 Universal Cable Productions LLC ALL RIGHTS RESERVED
Cover                                    : Yes
Rating                                   : None
AppleStoreCatalogID                      : 1290374383
AlbumTitleID                             : 1286606220
PlayListID                               : 1286606221
GenreID                                  : 4001
Part_ID                                  : H7901
Title/Sort                               : Sam Riley's Body
ContentRating                            : us-tv|TV-MA|600|
LongDescription                          : When a farmer's strike led by local preacher Seth Davenport escalates, a vicious man from his past named Creeley Turner is sent to Holden, Iowa to restore order.
TVNetworkName                            : USA
Vendor                                   : NBCUniversal:vendor_id:NBC_DMNTN_H7901
Flavour                                  : 18:1080p
AppleStoreCountry                        : United States
Video
ID                                       : 1
Format                                   : AVC
Format/Info                              : Advanced Video Codec
Format profile                           : High@L4
Format settings                          : CABAC / 4 Ref Frames
Format settings, CABAC                   : Yes
Format settings, RefFrames               : 4 frames
Codec ID                                 : avc1
Codec ID/Info                            : Advanced Video Coding
Duration                                 : 54 min 39 s
Bit rate                                 : 5 185 kb/s
Maximum bit rate                         : 12.9 Mb/s
Width                                    : 1 920 pixels
Height                                   : 1 080 pixels
Display aspect ratio                     : 16:9
Frame rate mode                          : Constant
Frame rate                               : 23.976 (24000/1001) FPS
Color space                              : YUV
Chroma subsampling                       : 4:2:0
Bit depth                                : 8 bits
Scan type                                : Progressive
Bits/(Pixel*Frame)                       : 0.104
Stream size                              : 1.98 GiB (83%)
Title                                    : Core Media Video
Language                                 : English
Encoded date                             : UTC 2017-11-08 00:15:40
Tagged date                              : UTC 2017-11-08 00:15:46
Color range                              : Limited
Color primaries                          : BT.709
Transfer characteristics                 : BT.709
Matrix coefficients                      : BT.709
Audio #1
ID                                       : 2
Format                                   : AAC
Format/Info                              : Advanced Audio Codec
Format profile                           : LC
Codec ID                                 : mp4a-40-2
Duration                                 : 54 min 40 s
Bit rate mode                            : Variable
Bit rate                                 : 124 kb/s
Maximum bit rate                         : 200 kb/s
Channel(s)                               : 2 channels
Channel positions                        : Front: L R
Sampling rate                            : 48.0 kHz
Frame rate                               : 46.875 FPS (1024 SPF)
Compression mode                         : Lossy
Stream size                              : 48.3 MiB (2%)
Title                                    : Core Media Audio
Language                                 : Russian
Default                                  : Yes
Alternate group                          : 1
Encoded date                             : UTC 2017-11-10 21:00:00
Tagged date                              : UTC 2017-11-10 21:00:00
Fallback From                            : 3
tagc                                     : public.translation.voice-over
Audio #2
ID                                       : 3
Format                                   : AC-3
Format/Info                              : Audio Coding 3
Format settings, Endianness              : Big
Codec ID                                 : ac-3
Duration                                 : 54 min 40 s
Bit rate mode                            : Constant
Bit rate                                 : 384 kb/s
Maximum bit rate                         : 406 kb/s
Channel(s)                               : 6 channels
Channel positions                        : Front: L C R, Side: L R, LFE
Sampling rate                            : 48.0 kHz
Frame rate                               : 31.250 FPS (1536 SPF)
Bit depth                                : 16 bits
Compression mode                         : Lossy
Stream size                              : 150 MiB (6%)
Title                                    : Core Media Audio
Language                                 : Russian
Service kind                             : Complete Main
Default                                  : Inherited From: 2
Alternate group                          : 1
Encoded date                             : UTC 2017-11-10 21:00:00
Tagged date                              : UTC 2017-11-10 21:00:00
Fallback To                              : 2
tagc                                     : public.translation.voice-over
Audio #3
ID                                       : 4
Format                                   : AAC
Format/Info                              : Advanced Audio Codec
Format profile                           : LC
Codec ID                                 : mp4a-40-2
Duration                                 : 54 min 40 s
Bit rate mode                            : Variable
Bit rate                                 : 153 kb/s
Maximum bit rate                         : 250 kb/s
Channel(s)                               : 2 channels
Channel positions                        : Front: L R
Sampling rate                            : 48.0 kHz
Frame rate                               : 46.875 FPS (1024 SPF)
Compression mode                         : Lossy
Stream size                              : 59.9 MiB (2%)
Title                                    : Core Media Audio
Language                                 : English
Default                                  : No
Alternate group                          : 1
Encoded date                             : UTC 2017-11-08 00:15:40
Tagged date                              : UTC 2017-11-08 00:15:46
Fallback From                            : 6
Audio #4
ID                                       : 6
Format                                   : AC-3
Format/Info                              : Audio Coding 3
Format settings, Endianness              : Big
Codec ID                                 : ac-3
Duration                                 : 54 min 40 s
Bit rate mode                            : Constant
Bit rate                                 : 384 kb/s
Maximum bit rate                         : 406 kb/s
Channel(s)                               : 6 channels
Channel positions                        : Front: L C R, Side: L R, LFE
Sampling rate                            : 48.0 kHz
Frame rate                               : 31.250 FPS (1536 SPF)
Bit depth                                : 16 bits
Compression mode                         : Lossy
Stream size                              : 150 MiB (6%)
Title                                    : Core Media Audio
Language                                 : English
Service kind                             : Complete Main
Default                                  : No
Alternate group                          : 1
Encoded date                             : UTC 2017-11-08 00:15:40
Tagged date                              : UTC 2017-11-08 00:15:46
Fallback To                              : 4
Text #1
ID                                       : 5-CC1
Format                                   : EIA-608
Muxing mode                              : Final Cut
Codec ID                                 : c608
Duration                                 : 54 min 16 s
Bit rate mode                            : Constant
Stream size                              : 0.00 Byte (0%)
Title                                    : Core Media Closed Caption
Language                                 : English
Forced                                   : No
Encoded date                             : UTC 2017-11-08 00:15:40
Tagged date                              : UTC 2017-11-08 00:15:46
CaptionServiceName                       : CC1
Text #2
ID                                       : 7
Format                                   : Timed Text
Muxing mode                              : sbtl
Codec ID                                 : tx3g
Duration                                 : 54 min 15 s
Bit rate mode                            : Variable
Bit rate                                 : 72 b/s
Stream size                              : 28.5 KiB (0%)
Title                                    : Core Media Subtitle
Language                                 : English
Default                                  : No
Forced                                   : No
Alternate group                          : 2
Encoded date                             : UTC 2017-11-08 00:15:40
Tagged date                              : UTC 2017-11-08 00:15:46
tagc                                     : public.accessibility.transcribes-spoken-dialog




[/spoiler]
 
Не забывайте говорить Спасибо. Не уходите с раздачи!   
Торрент: Зарегистрирован [14 янв 2018, 09:07] Для скачивания .torrent
необходима регистрация
Или скачать с помощью
MediaGet
Статус:
Проверен
 
.torrent скачан: 0 раз
Хэш: 36ffd7dbfa161e8225fd71ace194679169ec8d0f
Размер: 16.47 ГБ (17 685 528 026 байт)
Стать Автором раздачи
 
 
Раздал: 0 байт
Скачал: 0 байт
Ратио: Inf.
Сообщения: 378296
Зарегистрирован: 17 апр 2014, 13:57


Вернуться в Сериалы HD для Apple TV

Кто сейчас на конференции

Сейчас эту тему просматривают: нет зарегистрированных пользователей и гости: 1

Ресурс не предоставляет электронные версии произведений, а занимается лишь коллекционированием и каталогизацией ссылок, присылаемых и публикуемых на форуме нашими читателями. Если вы являетесь правообладателем какого-либо представленного материала и не желаете чтобы ссылка на него находилась в нашем каталоге, свяжитесь с нами и мы незамедлительно удалим её. Файлы для обмена на трекере предоставлены пользователями сайта, и администрация не несёт ответственности за их содержание. Просьба не заливать файлы, защищенные авторскими правами, а также файлы нелегального содержания!
cron