Наемник / American Assassin (Майкл Куэста / Michael Cuesta) [2017, США, боевик, BDRip-AVC] Dub (iTunes) + Original Eng + Sub (Rus, Eng)

 
 Статистика раздачи 
Размер: 2.76 ГБ   |  Зарегистрирован: 14 янв 2018, 14:23   |   .torrent скачан: 0 раз
Сидеров: 1  [ 0 байт/сек ]     Личеров: 0  [ 0 байт/сек ]  
  

Наемник / American Assassin (Майкл Куэста / Michael Cuesta) [2017, США, боевик, BDRip-AVC] Dub (iTunes) + Original Eng + Sub (Rus, Eng)

Сообщение Nakazhu » 14 янв 2018, 14:23

Наемник / American Assassin

Страна: США
Жанр: боевик
Год выпуска: 2017
Продолжительность: 01:51:38
Перевод: Профессиональный (дублированный) iTunes
Субтитры: русские, английские
Оригинальная аудиодорожка: английский
Режиссер: Майкл Куэста / Michael Cuesta
В ролях: Дилан О’Брайен, Майкл Китон, Санаа Лэтэн, Шива Негар, Тейлор Китч, Дэвид Суше, Навид Негабан, Скотт Эдкинс, Шарлотта Вега, Кристофер Уэбстер
Описание: Тайный наёмник ЦРУ Митч Рэпп раздавлен потерей невесты в результате теракта. Заместитель директора ЦРУ назначает Стэна Хёрли обучать убитого горем, но серьёзно настроенного Митча для предотвращения террористических операций и охоты на преступников. Вместе они исследуют волну, на первый взгляд, случайных нападений на военные и гражданские объекты. Но позже напарникам предстоит объединиться с турецким агентом, чтобы предотвратить начало Третьей мировой войны на Ближнем Востоке.
Сэмпл: http://sendfile.su/1391427

Качество видео: BDRip-AVC
Формат видео: MKV
Видео: x264, 1108x464 (2.40:1) 23.976 fps, ~2712 kbps, 0,220 bit/pixel
Аудио 1: 48 kHz, AC3 Dolby Digital, 3/2 (L,C,R,l,r) + LFE ch, ~384 kbps [русский, iTunes Russia]
Аудио 2: 48 kHz, AC3 Dolby Digital, 3/2 (L,C,R,l,r) + LFE ch, ~448 kbps [английский]
Формат субтитров: softsub (SRT)
General
Unique ID : 166491696597797822608352931594975328555 (0x7D412267D6B73C92A00464B414C4392B)
Format : Matroska
Format version : Version 4 / Version 2
File size : 2.76 GiB
Duration : 1h 51mn
Overall bit rate : 3 546 Kbps
Encoded date : UTC 2018-01-14 10:38:10
Writing application : mkvmerge v19.0.0 ('Brave Captain') 64-bit
Writing library : libebml v1.3.5 + libmatroska v1.4.8
Video #1
ID : 1
Format : AVC
Format/Info : Advanced Video Codec
Format profile : High@L4.1
Format settings, CABAC : Yes
Format settings, ReFrames : 12 frames
Codec ID : V_MPEG4/ISO/AVC
Duration : 1h 51mn
Bit rate : 2 712 Kbps
Width : 1 108 pixels
Height : 464 pixels
Display aspect ratio : 2.40:1
Frame rate mode : Constant
Frame rate : 23.976 (24000/1001) fps
Color space : YUV
Chroma subsampling : 4:2:0
Bit depth : 8 bits
Scan type : Progressive
Bits/(Pixel*Frame) : 0.220
Stream size : 2.11 GiB (76%)
Writing library : x264 core 152 r2851 ba24899
Encoding settings : cabac=1 / ref=12 / deblock=1:-3:-2 / analyse=0x3:0x133 / me=umh / subme=10 / psy=1 / psy_rd=1.00:0.00 / mixed_ref=1 / me_range=32 / chroma_me=1 / trellis=2 / 8x8dct=1 / cqm=0 / deadzone=21,11 / fast_pskip=0 / chroma_qp_offset=-2 / threads=6 / lookahead_threads=1 / sliced_threads=0 / nr=0 / decimate=1 / interlaced=0 / bluray_compat=0 / constrained_intra=0 / bframes=13 / b_pyramid=2 / b_adapt=2 / b_bias=0 / direct=1 / weightb=1 / open_gop=0 / weightp=2 / keyint=250 / keyint_min=23 / scenecut=40 / intra_refresh=0 / rc=crf / mbtree=0 / crf=19.6 / qcomp=0.65 / qpmin=0 / qpmax=69 / qpstep=4 / ip_ratio=1.40 / pb_ratio=1.30 / aq=3:0.90
Language : English
Default : Yes
Forced : No
Audio #2
ID : 2
Format : AC-3
Format/Info : Audio Coding 3
Mode extension : CM (complete main)
Format settings, Endianness : Big
Codec ID : A_AC3
Duration : 1h 51mn
Bit rate mode : Constant
Bit rate : 384 Kbps
Channel(s) : 6 channels
Channel positions : Front: L C R, Side: L R, LFE
Sampling rate : 48.0 KHz
Frame rate : 31.250 fps (1536 spf)
Compression mode : Lossy
Stream size : 307 MiB (11%)
Title : iTunes
Language : Russian
Default : Yes
Forced : No
Audio #3
ID : 3
Format : AC-3
Format/Info : Audio Coding 3
Mode extension : CM (complete main)
Format settings, Endianness : Big
Codec ID : A_AC3
Duration : 1h 51mn
Bit rate mode : Constant
Bit rate : 448 Kbps
Channel(s) : 6 channels
Channel positions : Front: L C R, Side: L R, LFE
Sampling rate : 48.0 KHz
Frame rate : 31.250 fps (1536 spf)
Compression mode : Lossy
Stream size : 358 MiB (13%)
Language : English
Default : No
Forced : No
Text #4
ID : 4
Format : UTF-8
Codec ID : S_TEXT/UTF8
Codec ID/Info : UTF-8 Plain Text
Duration : 1h 35mn
Bit rate : 3 bps
Count of elements : 61
Stream size : 2.66 KiB (0%)
Title : форсированные
Language : Russian
Default : Yes
Forced : No
Text #5
ID : 5
Format : UTF-8
Codec ID : S_TEXT/UTF8
Codec ID/Info : UTF-8 Plain Text
Duration : 1h 42mn
Bit rate : 42 bps
Count of elements : 1109
Stream size : 31.6 KiB (0%)
Language : English
Default : No
Forced : No
raw [info]: 1108x464p 1:1 @ 24000/1001 fps (cfr)
x264 [info]: using SAR=1/1
x264 [info]: using cpu capabilities: MMX2 SSE2Fast SSSE3 SSE4.2 AVX XOP FMA3 BMI1
x264 [info]: profile High, level 4.1
x264 [info]: frame I:1227 Avg QP:17.00 size: 62746
x264 [info]: frame P:33494 Avg QP:18.93 size: 27816
x264 [info]: frame B:125873 Avg QP:20.95 size: 10024
x264 [info]: consecutive B-frames: 2.1% 2.6% 7.2% 18.4% 13.8% 41.2% 4.2% 0.7% 1.8% 3.6% 1.3% 0.7% 1.3% 1.1%
x264 [info]: mb I I16..4: 7.3% 78.9% 13.8%
x264 [info]: mb P I16..4: 1.7% 16.8% 2.2% P16..4: 35.5% 22.2% 14.5% 0.4% 0.1% skip: 6.5%
x264 [info]: mb B I16..4: 0.2% 1.2% 0.2% B16..8: 40.7% 12.9% 3.9% direct: 6.6% skip:34.3% L0:46.2% L1:45.3% BI: 8.5%
x264 [info]: 8x8 transform intra:79.3% inter:63.0%
x264 [info]: coded y,uvDC,uvAC intra: 82.7% 81.2% 56.6% inter: 30.4% 24.7% 4.3%
x264 [info]: i16 v,h,dc,p: 32% 22% 9% 37%
x264 [info]: i8 v,h,dc,ddl,ddr,vr,hd,vl,hu: 8% 12% 9% 9% 13% 12% 14% 10% 13%
x264 [info]: i4 v,h,dc,ddl,ddr,vr,hd,vl,hu: 8% 18% 4% 8% 13% 12% 14% 9% 13%
x264 [info]: i8c dc,h,v,p: 43% 26% 17% 15%
x264 [info]: Weighted P-Frames: Y:15.3% UV:11.0%
x264 [info]: ref P L0: 44.4% 10.7% 17.0% 6.9% 5.5% 3.9% 3.4% 2.0% 1.8% 1.5% 1.4% 1.3% 0.2% 0.0%
x264 [info]: ref B L0: 66.9% 12.8% 7.2% 3.7% 2.7% 2.2% 1.8% 1.1% 0.9% 0.6% 0.2%
x264 [info]: ref B L1: 92.7% 7.3%
x264 [info]: kb/s:2711.68
x264 [total]: encoded 160594 frames, 5.65 fps, 2711.68 kb/s

 
Не забывайте говорить Спасибо. Не уходите с раздачи!   
Торрент: Зарегистрирован [14 янв 2018, 14:23] Для скачивания .torrent
необходима регистрация
Или скачать с помощью
MediaGet
Статус:
Проверен
 
.torrent скачан: 0 раз
Хэш: 81e91a974f59eaff3ca6213ae85612490f13b643
Размер: 2.76 ГБ (2 968 754 817 байт)
Стать Автором раздачи
 
 
Раздал: 0 байт
Скачал: 0 байт
Ратио: Inf.
Сообщения: 378296
Зарегистрирован: 17 апр 2014, 13:57


  • Похожие торренты
    Ответы
    Просмотры
    Последнее сообщение

Вернуться в Зарубежное кино

Кто сейчас на конференции

Сейчас эту тему просматривают: нет зарегистрированных пользователей и гости: 1

Ресурс не предоставляет электронные версии произведений, а занимается лишь коллекционированием и каталогизацией ссылок, присылаемых и публикуемых на форуме нашими читателями. Если вы являетесь правообладателем какого-либо представленного материала и не желаете чтобы ссылка на него находилась в нашем каталоге, свяжитесь с нами и мы незамедлительно удалим её. Файлы для обмена на трекере предоставлены пользователями сайта, и администрация не несёт ответственности за их содержание. Просьба не заливать файлы, защищенные авторскими правами, а также файлы нелегального содержания!
cron