National Geographic. Неизвестная планета Земля (1 сезон: 1-4 серии из 10) / One Strange Rock (Даррен Аронофски) [2018, Документальный, IPTVRip]

 
 Статистика раздачи 
Размер: 2.34 ГБ   |  Зарегистрирован: 16 апр 2018, 15:14   |   .torrent скачан: 0 раз
Сидеров: 1  [ 0 байт/сек ]     Личеров: 0  [ 0 байт/сек ]  
  

National Geographic. Неизвестная планета Земля (1 сезон: 1-4 серии из 10) / One Strange Rock (Даррен Аронофски) [2018, Документальный, IPTVRip]

Сообщение Nakazhu » 16 апр 2018, 15:14

-[1 сезон: 1-4 серии из 10]-

Название: Неизвестная планета Земля
Оригинальное название: One Strange Rock
Дата/Год выпуска: 2018
Страна: США
Жанр: Документальный
Продолжительность: 00:46:55
Перевод: Профессиональный (дублированный)
Русские субтитры: нет
Реклама: Отсутствует
Режиссер: Даррен Аронофски
В ролях: Уилл Смит
Оригинальная аудиодорожка: английский
Телеканал: National Geographic Channels
Описание: Необычайная история Земли и почему она необыкновенно наполнена жизнью в значительной части неизвестной, но суровой космической арены; астронавты рассказывают историю Земли с помощью уникальной перспективы.
качество: IPTVRip
формат: AVI
Видео: XviD, 720x400 (16:9) 25.00fps 1391 Кбит/с
Аудио 1: Русский, MP3, 2 ch, 192 Кбит/с
Аудио 2: Английский, MP3, 2 ch, 192 Кбит/с
Релиз: Dmitry-tv
Озвучено: на студии "Велес"
Текст читал: Юрий Романов
Рип: HDmitry-tv
Телеканал: National Geographic Channels
..............................................................
Документальный дубляж:
Голос рассказчика - полный дубляж
Интервью - слышна оригинальная речь
1-й сезон:
01. Зрелище, от которого дух захватывает (от 25.03.2018)
Те немногие, кому посчастливилось взглянуть на Землю из космоса, вспоминают, что тоненькая голубая полоска вокруг нашей планеты резко выделяла ее среди всех других планет.
02. Буря (от 01.04.2018)
Вы когда-нибудь задавались вопросом, как наша планета оказалась именно в том месте, где она сейчас находится? Она возникла в результате космической бури и сформировалась после целой серии столкновений космических объектов. Мы оказались в этом месте страшного и опасного космоса в результате серии случайных столкновений.
03. Щит (от 08.04.2018)
Земля защищает себя от солнца. История о Давиде и Голиафе - это история взаимоотношений Земли с ее самым грозным врагом, нашим таким на вид ласковым Солнцем.
04. Генезис (от 15.04.2018)
Наша планета отличается от множества других тем, что она живая. Несмотря на то, что строительные кирпичики, из которых образуется жизнь, можно найти повсюду во вселенной, вероятность встретить жизнь на какой-либо планете чрезвычайно мала.
05. Инопланетяне (дата выхода отсутствует)
Найдем ли мы когда-нибудь жизнь, похожую на нашу, на другой планете? Жизнь на земле началась с простой одноклеточной бактерии и оставалась такой в течение почти двух миллиардов лет.
06. Выживание (от 22.04.2018)
Необходимым условием для существования жизни на земле является смерть, которая запрограммирована во все на планете, начиная от клеток и до планеты в целом.
07. Пробуждение (дата выхода отсутствует)
Как произошло, что из всех форм жизни на земле только создания, наделенные умом, покидали нашу планету? В течение почти двух миллиардов лет ни одно создание на земле не обладало умом.
08. Терраформирование (дата выхода отсутствует)
С самого начала возникновения жизни на земле микробы, растения и животные принимают участие в формировании поверхности планеты и ее атмосферы самым странным образом: рыбы способствуют формированию островов, животные - гор, а растения - материков.
09. Побег (от 29.04.2018)
Астронавт Крис Хэдфилд покидал планету уже три раза, сейчас он готовится сделать это в очередной раз.
10. Дом (дата выхода отсутствует)
После трех полетов в космос, 665-ти дней, проведенных в состоянии невесомости, наиболее опытный астронавт НАСА Пегги Уитсон в последний раз пронзает атмосферу, чтобы вернуться домой на планету Земля.
Код: Выделить всё
Complete name               : I:\OneStrangeRock .S01E01 -[NatGeo]-.avi
Format                      : AVI
Format/Info                 : Audio Video Interleave
File size                   : 600 MiB
Duration                    : 46 min 55 s
Overall bit rate            : 1 789 kb/s
Writing application         : Lavf58.10.100
Comment                     : HDmitry-tv
Video
ID                          : 0
Format                      : AVC
Format/Info                 : Advanced Video Codec
Format profile              : High@L3.2
Format settings, CABAC      : Yes
Format settings, ReFrames   : 2 frames
Codec ID                    : H264
Duration                    : 46 min 55 s
Bit rate                    : 1 391 kb/s
Width                       : 720 pixels
Height                      : 400 pixels
Display aspect ratio        : 16:9
Frame rate mode             : Variable
Frame rate                  : 25.000 FPS
Color space                 : YUV
Chroma subsampling          : 4:2:0
Bit depth                   : 8 bits
Scan type                   : Progressive
Bits/(Pixel*Frame)          : 0.193
Stream size                 : 464 MiB (77%)
Writing library             : x264 core 155 r2901
Encoding settings           : cabac=1 / ref=1 / deblock=1:0:0 / analyse=0x3:0x133 / me=hex / subme=5 / psy=1 / psy_rd=1.00:0.00 / mixed_ref=0 / me_range=16 / chroma_me=1 / trellis=0 / 8x8dct=1 / cqm=0 / deadzone=21,11 / fast_pskip=1 / chroma_qp_offset=0 / threads=3 / lookahead_threads=1 / sliced_threads=0 / nr=0 / decimate=1 / interlaced=0 / bluray_compat=0 / constrained_intra=0 / bframes=3 / b_pyramid=0 / b_adapt=1 / b_bias=0 / direct=0 / weightb=1 / open_gop=0 / weightp=2 / keyint=250 / keyint_min=25 / scenecut=40 / intra_refresh=0 / rc_lookahead=40 / rc=abr / mbtree=1 / bitrate=1391 / ratetol=1.0 / qcomp=0.60 / qpmin=10 / qpmax=51 / qpstep=4 / vbv_maxrate=24000 / vbv_bufsize=24000 / nal_hrd=none / filler=0 / ip_ratio=1.40 / aq=1:1.00
Audio #1
ID                          : 1
Format                      : MPEG Audio
Format version              : Version 1
Format profile              : Layer 3
Codec ID                    : 55
Codec ID/Hint               : MP3
Duration                    : 46 min 55 s
Bit rate mode               : Constant
Bit rate                    : 192 kb/s
Channel(s)                  : 2 channels
Sampling rate               : 48.0 kHz
Compression mode            : Lossy
Stream size                 : 64.4 MiB (11%)
Alignment                   : Aligned on interleaves
Interleave, duration        : 24  ms (0.60 video frame)
Interleave, preload duratio : 24  ms
Audio #2
ID                          : 2
Format                      : MPEG Audio
Format version              : Version 1
Format profile              : Layer 3
Codec ID                    : 55
Codec ID/Hint               : MP3
Duration                    : 46 min 55 s
Bit rate mode               : Constant
Bit rate                    : 192 kb/s
Channel(s)                  : 2 channels
Sampling rate               : 48.0 kHz
Compression mode            : Lossy
Stream size                 : 64.4 MiB (11%)
Alignment                   : Aligned on interleaves
Interleave, duration        : 24  ms (0.60 video frame)
Interleave, preload duratio : 24  ms
 
Не забывайте говорить Спасибо. Не уходите с раздачи!   
Торрент: Зарегистрирован [16 апр 2018, 15:14] Для скачивания .torrent
необходима регистрация
Или скачать с помощью
MediaGet
Статус:
Проверен
 
.torrent скачан: 0 раз
Хэш: d4ed0286620955b23c4923e583af9234f6451e3b
Размер: 2.34 ГБ (2 517 686 134 байт)
Стать Автором раздачи
 
 
Раздал: 0 байт
Скачал: 0 байт
Ратио: Inf.
Сообщения: 438527
Зарегистрирован: 17 апр 2014, 13:57


Вернуться в Документальные фильмы и телепередачи

Кто сейчас на конференции

Сейчас эту тему просматривают: нет зарегистрированных пользователей и гости: 1

Ресурс не предоставляет электронные версии произведений, а занимается лишь коллекционированием и каталогизацией ссылок, присылаемых и публикуемых на форуме нашими читателями. Если вы являетесь правообладателем какого-либо представленного материала и не желаете чтобы ссылка на него находилась в нашем каталоге, свяжитесь с нами и мы незамедлительно удалим её. Файлы для обмена на трекере предоставлены пользователями сайта, и администрация не несёт ответственности за их содержание. Просьба не заливать файлы, защищенные авторскими правами, а также файлы нелегального содержания!
cron