Убийство Джоан / Killing Joan (Тодд Барту / Todd Bartoo) [2018, США, ужасы, боевик, триллер, WEB-DLRip-AVC] DVO (HiWay Grope)

 
 Статистика раздачи 
Размер: 1.47 ГБ   |  Зарегистрирован: 16 апр 2018, 15:44   |   .torrent скачан: 0 раз
Сидеров: 1  [ 0 байт/сек ]     Личеров: 0  [ 0 байт/сек ]  
  

Убийство Джоан / Killing Joan (Тодд Барту / Todd Bartoo) [2018, США, ужасы, боевик, триллер, WEB-DLRip-AVC] DVO (HiWay Grope)

Сообщение Nakazhu » 16 апр 2018, 15:44

Убийство Джоан

Killing Joan

Страна: США
Жанр: ужасы, боевик, триллер, драма, криминал
Год выпуска: 2018
Продолжительность: 01:41:21
Перевод: Любительский (двухголосый, закадровый) [HiWay Grope]
Субтитры: нет
Оригинальная аудиодорожка: нет
Режиссер: Тодд Барту / Todd Bartoo
В ролях: Джэми Бернадетт, Teo Celigo, Эрик Од, Дэвид Кэри Фостер, Дэниэл Гарднер, Дион Баско, Pavle Kujundzic, Каспер Андреас, Катарина Уотерс, Эрин О’Брайэн, Alexandra Lemus, Дэнни Мика
Описание:
Джоан работает на местного мафиози, который известен своей безжалостностью и диким нравом. После того, как на ее жизнь покушаются ее же коллеги, героиня решает разобраться с обидчиками. Девушка пойдет на всё, чтобы отомстить и устроить настоящую кровавую бойню.

Автор рипа: stalkerok
Удаление рекламы: stalkerok
Сэмпл
Качество видео: WEB-DLRip-AVC [Killing Joan 2018 1080p WEB-DL DD5 1 H264-CMRG]
Формат видео: MKV
Видео: AVC, 1692 Кбит/сек, 1024x576 (16:9), 23,976 кадр/сек
Аудио: AC3, 384 Кбит/сек, 48 КГц, 5.1 - русский
Навигация по главам: есть

---[Information] [15.04.2018 23:59:30] x264 [info]: frame I:787 Avg QP:15.08 size: 50774
---[Information] [15.04.2018 23:59:30] x264 [info]: frame P:33425 Avg QP:16.72 size: 18518
---[Information] [15.04.2018 23:59:30] x264 [info]: frame B:111605 Avg QP:19.16 size: 5623
General
Unique ID : 209904056821337866967046139700370421476 (0x9DEA0D0460D7C8B0B8B54E8B7F9B36E4)
Complete name : V:\!Rips\Killing Joan (2018)\Killing.Joan.2018.WEB-DLRip-AVC.Rus.stalkerok.new-team.mkv
Format : Matroska
Format version : Version 4 / Version 2
File size : 1.47 GiB
Duration : 1 h 41 min
Overall bit rate : 2 078 kb/s
Movie name : Killing Joan (2018) (Rip by stalkerok)
Encoded date : UTC 2018-04-16 09:09:43
Writing application : mkvmerge v8.6.1 ('Flying') 64bit
Writing library : libebml v1.3.3 + libmatroska v1.4.4
Video
ID : 1
Format : AVC
Format/Info : Advanced Video Codec
Format profile : High@L4.1
Format settings, CABAC : Yes
Format settings, ReFrames : 14 frames
Codec ID : V_MPEG4/ISO/AVC
Duration : 1 h 41 min
Bit rate : 1 692 kb/s
Width : 1 024 pixels
Height : 576 pixels
Display aspect ratio : 16:9
Frame rate mode : Constant
Frame rate : 23.976 (24000/1001) FPS
Color space : YUV
Chroma subsampling : 4:2:0
Bit depth : 8 bits
Scan type : Progressive
Bits/(Pixel*Frame) : 0.120
Stream size : 1.20 GiB (81%)
Title : Killing Joan (2018) (Rip by stalkerok)
Writing library : x264 core 155 r2901 7d0ff22
Encoding settings : cabac=1 / ref=14 / deblock=1:-3:-2 / analyse=0x3:0x133 / me=umh / subme=11 / psy=1 / psy_rd=1.00:0.00 / mixed_ref=1 / me_range=32 / chroma_me=1 / trellis=2 / 8x8dct=1 / cqm=0 / deadzone=21,11 / fast_pskip=0 / chroma_qp_offset=-2 / threads=12 / lookahead_threads=3 / sliced_threads=0 / nr=0 / decimate=1 / interlaced=0 / bluray_compat=0 / constrained_intra=0 / bframes=15 / b_pyramid=2 / b_adapt=2 / b_bias=0 / direct=3 / weightb=1 / open_gop=0 / weightp=2 / keyint=240 / keyint_min=23 / scenecut=40 / intra_refresh=0 / rc_lookahead=60 / rc=crf / mbtree=0 / crf=18.8 / qcomp=0.65 / qpmin=0 / qpmax=69 / qpstep=4 / vbv_maxrate=50000 / vbv_bufsize=62500 / crf_max=0.0 / nal_hrd=none / filler=0 / ip_ratio=1.40 / pb_ratio=1.30 / aq=3:0.80 / zones=141758,145816,q=34
Default : Yes
Forced : No
Audio
ID : 2
Format : AC-3
Format/Info : Audio Coding 3
Mode extension : CM (complete main)
Format settings, Endianness : Big
Codec ID : A_AC3
Duration : 1 h 41 min
Bit rate mode : Constant
Bit rate : 384 kb/s
Channel(s) : 6 channels
Channel positions : Front: L C R, Side: L R, LFE
Sampling rate : 48.0 kHz
Frame rate : 31.250 FPS (1536 spf)
Compression mode : Lossy
Stream size : 278 MiB (18%)
Title : HiWay Grope
Language : Russian
Default : Yes
Forced : No
Menu
00:00:00.000 : en:1
00:11:45.955 : en:2
00:26:56.156 : en:3
00:38:32.018 : en:4
00:48:50.720 : en:5
01:01:32.148 : en:6
01:11:18.859 : en:7
01:17:31.648 : en:8
01:26:25.473 : en:9
01:38:39.748 : en:10
 
Не забывайте говорить Спасибо. Не уходите с раздачи!   
Торрент: Зарегистрирован [16 апр 2018, 15:44] Для скачивания .torrent
необходима регистрация
Или скачать с помощью
MediaGet
Статус:
Проверен
 
.torrent скачан: 0 раз
Хэш: d2df1171212eeaee0f424d5695b7685a6d87fbaf
Размер: 1.47 ГБ (1 579 687 039 байт)
Стать Автором раздачи
 
 
Раздал: 0 байт
Скачал: 0 байт
Ратио: Inf.
Сообщения: 438527
Зарегистрирован: 17 апр 2014, 13:57


  • Похожие торренты
    Ответы
    Просмотры
    Последнее сообщение

Вернуться в Зарубежное кино

Кто сейчас на конференции

Сейчас эту тему просматривают: нет зарегистрированных пользователей и гости: 1

Ресурс не предоставляет электронные версии произведений, а занимается лишь коллекционированием и каталогизацией ссылок, присылаемых и публикуемых на форуме нашими читателями. Если вы являетесь правообладателем какого-либо представленного материала и не желаете чтобы ссылка на него находилась в нашем каталоге, свяжитесь с нами и мы незамедлительно удалим её. Файлы для обмена на трекере предоставлены пользователями сайта, и администрация не несёт ответственности за их содержание. Просьба не заливать файлы, защищенные авторскими правами, а также файлы нелегального содержания!
cron