Кремниевая долина / Silicon Valley / Сезон: 5 / Серии: 1-3 из 10 (Майк Джадж / Mike Judge) [2018, США, Комедия, WEBRip 1080p] DVO (Кубик в Кубе) + Original

 
 Статистика раздачи 
Размер: 5.07 ГБ   |  Зарегистрирован: 16 апр 2018, 16:15   |   .torrent скачан: 0 раз
Сидеров: 1  [ 0 байт/сек ]     Личеров: 0  [ 0 байт/сек ]  
  

Кремниевая долина / Silicon Valley / Сезон: 5 / Серии: 1-3 из 10 (Майк Джадж / Mike Judge) [2018, США, Комедия, WEBRip 1080p] DVO (Кубик в Кубе) + Original

Сообщение Nakazhu » 16 апр 2018, 16:15

Кремниевая долина / Silicon Valley
Год выпуска: 2018
Страна: США
Жанр: Kомедия
Продолжительность: 00:31:00
Перевод: Профессиональный (двухголосый закадровый) Кубик в Кубе
Режиссёр: Майк Джадж / Mike Judge
В ролях: Аманда Крю, Джэйк Бродер, Энди Бакли, Порша Коулмэн, Джимми Оуянг
Описание: Сатирическая история про группу одержимых гиков, готовящих к запуску собственные стартапы, выходит на новый круг. У чудаковатых гениев появились силы на новые махинации. Отстраненный от позиции CEO в собственной компании Ричард Хендрикс борется за возвращение компании и своего законного статуса. Это станет центральным конфликтом предстоящего сезона. Вернется ли Ричард в компанию или просто сказочно разбогатеет?
Доп. информация: Реклама из перевода «Кубика в кубе» вырезана. Источник видео — AMZN WEBRip с одного западного треккера. Перевод кубиков в 5.1 с одного русского трекера
Сэмпл: http://multi-up.com/1194619
Качество: WEBRip 1080p
Контейнер: MKV
Видео: H.264, 1920x1080, 16:9, 23.976 (24000/1001) fps, 7282 Kbps
Аудио: Русский / Кубик в кубе, AC3, 48.0 KHz, 5.1, 384 Kbps
Аудио 2: Английский, AC3, 48.0 KHz, 5.1, 448 Kbps
Субтитры: Английские (обычные и для слабослышащих), русские
Реклама:
Отсутствует (вырезана)
S05E01 Grow Fast or Die Slow
S05E02 Reorientation
S05E03 Chief Operating Officer
General
Unique ID : 177751620277451476753097775213351290415 (0x85B9B78139A37CD3D9F4E8A5D548462F)
Complete name : Silicon.Valley.S05E01.1080p.AMZN.WEBRip.x264.no.ads.mkv
Format : Matroska
Format version : Version 4 / Version 2
File size : 1.81 GiB
Duration : 31mn 50s
Overall bit rate mode : Variable
Overall bit rate : 8 117 Kbps
Movie name : Silicon Valley S05E01 Grow Fast or Die Slow 1080p AMZN WEBRip (Кубик в кубе, без рекламы)
Encoded date : UTC 2018-04-11 16:05:28
Writing application : mkvmerge v8.8.0 ('Wind at my back') 64bit
Writing library : libebml v1.3.3 + libmatroska v1.4.4
Cover : Yes
Attachments : cover.jpg
Video
ID : 1
Format : AVC
Format/Info : Advanced Video Codec
Format profile : High@L4
Format settings, CABAC : Yes
Format settings, ReFrames : 4 frames
Codec ID : V_MPEG4/ISO/AVC
Duration : 31mn 50s
Bit rate mode : Variable
Bit rate : 7 282 Kbps
Maximum bit rate : 15.0 Mbps
Width : 1 920 pixels
Height : 1 080 pixels
Display aspect ratio : 16:9
Frame rate mode : Constant
Frame rate : 23.976 (24000/1001) fps
Color space : YUV
Chroma subsampling : 4:2:0
Bit depth : 8 bits
Scan type : Progressive
Bits/(Pixel*Frame) : 0.146
Stream size : 1.62 GiB (90%)
Title : Silicon Valley S05E01 Grow Fast or Die Slow 1080p AMZN WEBRip
Language : English
Default : Yes
Forced : No
Color range : Limited
Color primaries : BT.709
Transfer characteristics : BT.709
Matrix coefficients : BT.709
Audio #1
ID : 4
Format : AC-3
Format/Info : Audio Coding 3
Mode extension : CM (complete main)
Format settings, Endianness : Big
Codec ID : A_AC3
Duration : 31mn 50s
Bit rate mode : Constant
Bit rate : 384 Kbps
Channel(s) : 6 channels
Channel positions : Front: L C R, Side: L R, LFE
Sampling rate : 48.0 KHz
Frame rate : 31.250 fps (1536 spf)
Compression mode : Lossy
Stream size : 87.5 MiB (5%)
Title : Кубик в Кубе (без рекламы)
Language : Russian
Default : Yes
Forced : No
Audio #2
ID : 5
Format : AC-3
Format/Info : Audio Coding 3
Mode extension : CM (complete main)
Format settings, Endianness : Big
Codec ID : A_AC3
Duration : 31mn 50s
Bit rate mode : Constant
Bit rate : 448 Kbps
Channel(s) : 6 channels
Channel positions : Front: L C R, Side: L R, LFE
Sampling rate : 48.0 KHz
Frame rate : 31.250 fps (1536 spf)
Compression mode : Lossy
Stream size : 102 MiB (6%)
Language : English
Default : No
Forced : No
Text #1
ID : 2
Format : UTF-8
Codec ID : S_TEXT/UTF8
Codec ID/Info : UTF-8 Plain Text
Duration : 31mn 39s
Bit rate : 103 bps
Count of elements : 645
Stream size : 24.0 KiB (0%)
Language : English
Default : No
Forced : No
Text #2
ID : 3
Format : UTF-8
Codec ID : S_TEXT/UTF8
Codec ID/Info : UTF-8 Plain Text
Duration : 31mn 39s
Bit rate : 108 bps
Count of elements : 663
Stream size : 25.1 KiB (0%)
Title : SDH
Language : English
Default : No
Forced : No
Text #3
ID : 6
Format : UTF-8
Codec ID : S_TEXT/UTF8
Codec ID/Info : UTF-8 Plain Text
Duration : 28mn 5s
Bit rate : 162 bps
Count of elements : 573
Stream size : 33.4 KiB (0%)
Language : Russian
Default : No
Forced : No
Menu
00:00:00.000 : en:TV Rating
00:00:03.629 : en:Previously On
00:01:43.629 : en:Studio Logo
00:01:49.629 : en:Pied Piper moves into their new office space
00:05:16.629 : en:Title Sequence
00:05:26.629 : en:Dinesh and Bertram can't agree on who to hire
00:07:39.629 : en:Richard attends Gavin's gala
00:10:21.629 : en:Pied Piper attempts to buy out another company
00:13:39.629 : en:Dinesh and Gilfoyle return home
00:14:37.629 : en:Gavin speaks to the new hires
00:16:59.629 : en:Jian tries to take control of the house
00:18:53.629 : en:Richard looses out on more employees
00:21:17.629 : en:Gavin looks at the Box pre-order numbers
00:23:05.629 : en:Sliceline has a huge problem
00:26:28.629 : en:Richard meets with Monica and Laurie
00:28:07.629 : en:Richard gives a speech to his new coders
00:30:03.629 : en:End Credits
00:31:13.629 : en:On the next episode
(1) остановить скачивание,
(2) удалить старый торрент у себя из клиента (старые серии удалять не надо),
(3) скачать новый торрент и запустить его у себя в клиенте вместо старого, при этом указать клиенту путь в старую папку куда и должно происходить скачивание новых серий.
Ваш клиент при этом должен произвести хеширование (проверку) старой папки (если не производит сам - помогите ему сделать это), и будет докачивать только те серии которых у вас ещё нет. Старые серии при этом не удаляются, а продолжают раздаваться!
Eсли вы уже удалили старые серии, то предотвратить повторную закачку старых серий можно, отжав галочку в соответсвующих местах при запуске нового торрента. По возможности, желательно не удалять старые серии как можно дольше чтобы релизёр не столько продолжал раздавать старые серии, а смог сконцентрироваться на новых.
Предыдущие и альтернативные раздачи
 
Не забывайте говорить Спасибо. Не уходите с раздачи!   
Торрент: Зарегистрирован [16 апр 2018, 16:15] Для скачивания .torrent
необходима регистрация
Или скачать с помощью
MediaGet
Статус:
Проверен
 
.torrent скачан: 0 раз
Хэш: 8698cfd4eb4abe0e9dfaa5693909dfae3f5d5103
Размер: 5.07 ГБ (5 448 018 179 байт)
Стать Автором раздачи
 
 
Раздал: 0 байт
Скачал: 0 байт
Ратио: Inf.
Сообщения: 438527
Зарегистрирован: 17 апр 2014, 13:57


Вернуться в Зарубежные сериалы (HD Video)

Кто сейчас на конференции

Сейчас эту тему просматривают: нет зарегистрированных пользователей и гости: 1

Ресурс не предоставляет электронные версии произведений, а занимается лишь коллекционированием и каталогизацией ссылок, присылаемых и публикуемых на форуме нашими читателями. Если вы являетесь правообладателем какого-либо представленного материала и не желаете чтобы ссылка на него находилась в нашем каталоге, свяжитесь с нами и мы незамедлительно удалим её. Файлы для обмена на трекере предоставлены пользователями сайта, и администрация не несёт ответственности за их содержание. Просьба не заливать файлы, защищенные авторскими правами, а также файлы нелегального содержания!
cron