Сквозь огонь / Fire Tripper (Такахаси Мотосукэ) [1985 г., фэнтези, приключения, драма, история, VHSRip]

 
 Статистика раздачи 
Размер: 602.92 МБ   |  Зарегистрирован: 05 июл 2014, 13:14   |   .torrent скачан: 0 раз
Сидеров: 1  [ 0 байт/сек ]     Личеров: 0  [ 0 байт/сек ]  
  

Сквозь огонь / Fire Tripper (Такахаси Мотосукэ) [1985 г., фэнтези, приключения, драма, история, VHSRip]

Сообщение Satch » 05 июл 2014, 13:14

Сквозь огонь / Fire Tripper

Год выпуска: 1985
Страна: Япония
Жанр: фэнтези, приключения, драма, история
Продолжительность: OAV (1 эп.), 48 мин.
Перевод: одноголосый
Русские субтитры: нет

Режиссер: Такахаси Мотосукэ

Описание: Япония. XVI век, гражданские войны.
В горной деревушке идет бой. Гибнут люди, горят дома. В охваченной пламенем хижине осталась маленькая Судзу. Ее пытаются спасти, но с потолка на девочку рушатся пылающие балки. Огонь отражается в детских глазах... Мгновение – и Судзу исчезает из-под лавины углей.

Япония. XX век. Ночь в большом городе.
На берегу реки сидит перепачканная золой девочка в старомодном кимоно с бубенчиком...

Доп. информация:
Хардсаб отсутствует

Качество: VHSRip
Формат: AVI
Видео кодек: XviD
Аудио кодек: MPEG Audio
Видео: XVID 640x480 25.00fps 1345Kbps
Аудио: MPEG Audio Layer 3 44100Hz stereo 192Kbps
General
Complete name : D:\Down\Fire Tripper.avi
Format : AVI
Format/Info : Audio Video Interleave
File size : 603 MiB
Duration : 48mn 20s
Overall bit rate : 1 744 Kbps
Writing application : VirtualDubMod 1.5.10.2 (build 2542/release)
Writing library : VirtualDubMod build 2542/release

Video
ID : 0
Format : MPEG-4 Visual
Format profile : [email protected]
Format settings, BVOP : 2
Format settings, QPel : No
Format settings, GMC : No warppoints
Format settings, Matrix : Default (H.263)
Muxing mode : Packed bitstream
Codec ID : XVID
Codec ID/Hint : XviD
Duration : 48mn 20s
Bit rate : 1 345 Kbps
Width : 640 pixels
Height : 480 pixels
Display aspect ratio : 4:3
Frame rate : 25.000 fps
Color space : YUV
Chroma subsampling : 4:2:0
Bit depth : 8 bits
Scan type : Progressive
Compression mode : Lossy
Bits/(Pixel*Frame) : 0.175
Stream size : 465 MiB (77%)
Writing library : XviD 1.0.3 (UTC 2004-12-20)

Audio #1
ID : 1
Format : MPEG Audio
Format version : Version 1
Format profile : Layer 3
Mode : Joint stereo
Codec ID : 55
Codec ID/Hint : MP3
Duration : 48mn 20s
Bit rate mode : Constant
Bit rate : 192 Kbps
Channel(s) : 2 channels
Sampling rate : 44.1 KHz
Compression mode : Lossy
Stream size : 66.4 MiB (11%)
Alignment : Split accross interleaves
Interleave, duration : 40 ms (1.00 video frame)
Interleave, preload duration : 500 ms

Audio #2
ID : 2
Format : MPEG Audio
Format version : Version 1
Format profile : Layer 3
Mode : Joint stereo
Codec ID : 55
Codec ID/Hint : MP3
Duration : 48mn 20s
Bit rate mode : Constant
Bit rate : 192 Kbps
Channel(s) : 2 channels
Sampling rate : 44.1 KHz
Compression mode : Lossy
Stream size : 66.4 MiB (11%)
Alignment : Split accross interleaves
Interleave, duration : 40 ms (1.00 video frame)
Interleave, preload duration : 500 ms
 
Не забывайте говорить Спасибо. Не уходите с раздачи!   
Торрент: Зарегистрирован [05 июл 2014, 13:14] Для скачивания .torrent
необходима регистрация
Или скачать с помощью
MediaGet
Статус:
Проверен
 
.torrent скачан: 0 раз
Хэш: 51ae8754e61341b1086f62b717ee0cdf24fccdc1
Размер: 602.92 МБ (632 207 360 байт)
Стать Автором раздачи
 
Аватара пользователя
 
Раздал: 2.45 ГБ
Скачал: 15.94 МБ
Ратио: 157.696
Сообщения: 337733
Зарегистрирован: 16 янв 2012, 17:03


Re: Сквозь огонь / Fire Tripper (Такахаси Мотосукэ) [1985 г., фэнтези, приключения, драма, история, VHSRip]

Сообщение bussedo » 12 авг 2017, 07:52

Если кто то есть, встанте на раздачу. :)
 
Раздал: 203.92 ГБ
Скачал: 55.95 ГБ
Ратио: 3.645
Сообщения: 52
Зарегистрирован: 26 авг 2016, 11:05

Re: Сквозь огонь / Fire Tripper (Такахаси Мотосукэ) [1985 г., фэнтези, приключения, драма, история, VHSRip]

Сообщение i926 » 12 авг 2017, 23:34

Таки есть сид на раздаче..... Правда едва живой :)
Аватара пользователя
Главный редактор
Главный редактор
 
Раздал: 15.43 ТБ
Скачал: 13.78 ТБ
Ратио: 1.120
Сообщения: 64885
Зарегистрирован: 01 мар 2011, 23:07

Re: Сквозь огонь / Fire Tripper (Такахаси Мотосукэ) [1985 г., фэнтези, приключения, драма, история, VHSRip]

Сообщение bussedo » 15 авг 2017, 04:51

Всем благодаря кому я скачал спасибо. Теперь если что могу раздавать. Но я на компьютори долго не храню, я на д иск перенашу так что если что пишите я востанавлю. :)
 
Раздал: 203.92 ГБ
Скачал: 55.95 ГБ
Ратио: 3.645
Сообщения: 52
Зарегистрирован: 26 авг 2016, 11:05

Re: Сквозь огонь / Fire Tripper (Такахаси Мотосукэ) [1985 г., фэнтези, приключения, драма, история, VHSRip]

Сообщение i926 » 16 авг 2017, 00:25

Да завсегда пожалуйста ;)
Захотим сидов, будем знать кого просить
Аватара пользователя
Главный редактор
Главный редактор
 
Раздал: 15.43 ТБ
Скачал: 13.78 ТБ
Ратио: 1.120
Сообщения: 64885
Зарегистрирован: 01 мар 2011, 23:07


  • Похожие торренты
    Ответы
    Просмотры
    Последнее сообщение

Вернуться в Аниме (Основной)

Кто сейчас на конференции

Сейчас эту тему просматривают: нет зарегистрированных пользователей и гости: 1

Ресурс не предоставляет электронные версии произведений, а занимается лишь коллекционированием и каталогизацией ссылок, присылаемых и публикуемых на форуме нашими читателями. Если вы являетесь правообладателем какого-либо представленного материала и не желаете чтобы ссылка на него находилась в нашем каталоге, свяжитесь с нами и мы незамедлительно удалим её. Файлы для обмена на трекере предоставлены пользователями сайта, и администрация не несёт ответственности за их содержание. Просьба не заливать файлы, защищенные авторскими правами, а также файлы нелегального содержания!
cron